ML
     
  Уважаемый Гость!
Вы можете поддержать проект и зарегистрироваться у наших партнеров - онлайн-стратегия MyLands. При регистрации в игре Вы получите код, который сможете активировать после регистрации на pirat.ca и получить 1000 дублонов.

Ваш код:
c3360d664ceb84802c84b88ed062a5d134e2ba97
 
     

Приключения Мюнхгаузена (Натан Лернер, Анатолий Солин) [1973-1987 гг.] (Семейный, мультфильм) [DVDRip]

Ответить на тему
 
Автор
Сообщение

Пост 28-Дек-2011 15:22

[Q] 

Андря

Приключения Мюнхгаузена
Год выпуска: 1973-1987
Жанр: Семейный, мультфильм
Продолжительность: 00:39:00
Режиссер: Натан Лернер, Анатолий Солин
В ролях: Сергей Цейц, Александр Пожаров, Григорий Шпигель, Гарри Гриневич, Гарри Бардин, Виктор Сергачев, Вячеслав Богачёв, Рогволд Суховерко
Описание: Мультипликационный фильм по мотивам одноименной книги Эриха Распэ о приключениях барона Мюнхгаузена. Серии: « Между крокодилом и львом» - о том, как, охотясь на уток, Мюнхгаузен сам чуть не стал добычей; «Меткий выстрел» - о том, как Мюнхгаузен добывает белого медведя для Британского зоопарка; «Павлин» - о том, как Мюнхгаузен отправляется на Восток и настоятельно просит знаменитого джинна Рахата ибн Лукума отдать (за соответствующее вознаграждение) чудесную птицу, именуемую "павлином" - чтобы послушать пение этой прекрасной птицы; «Чудесный остров» - о том, как попавший на необитаемый остров Мюнхгаузен атакован пиратами. Но остров вдруг оказывается рыбой.
Качество: DVDRip
Формат: AVI
Видео кодек: XviD
Аудио кодек: AC3
Видео: 656х480, 1653 Кбит/сек, 25,000 кадр/сек, 4:3, XviD
Аудио: Audio Coding 3, 192 Кбит/сек, 2 канала, 48,0 КГц, AC-3
Общее
Полное имя : Приключения Мюнхаузена.avi
Формат : AVI
Формат/Информация : Audio Video Interleave
Размер файла : 519 Мбайт
Продолжительность : 39 м.
Общий поток : 1854 Кбит/сек
Программа кодирования : VirtualDubMod 1.5.10.2 (build 2540/release)
Библиотека кодирования : VirtualDubMod build 2540/release
Видео
Идентификатор : 0
Формат : MPEG-4 Visual
Профиль формата : Advanced [email protected]
Параметр BVOP формата : 1
Параметр QPel формата : Нет
Параметр GMC формата : Без точки перехода
Параметр матрицы формата : Default (H.263)
Режим смешивания : Сжатый битовый поток
Идентификатор кодека : XVID
Идентификатор кодека/Подсказка : XviD
Продолжительность : 39 м.
Битрейт : 1653 Кбит/сек
Ширина : 656 пикселей
Высота : 480 пикселей
Соотношение сторон : 4:3
Частота кадров : 25,000 кадров/сек
Цветовое пространство : YUV
Субдискретизация насыщенности : 4:2:0
Битовая глубина : 8 бит
Тип развёртки : Прогрессивная
Метод сжатия : С потерями
Бит/(Пиксели*Кадры) : 0.210
Размер потока : 463 Мбайт (89%)
Библиотека кодирования : XviD 1.1.0 (UTC 2005-11-22)
Аудио
Идентификатор : 1
Формат : AC-3
Формат/Информация : Audio Coding 3
Расширение режима : CM (complete main)
Идентификатор кодека : 2000
Продолжительность : 39 м.
Вид битрейта : Постоянный
Битрейт : 192 Кбит/сек
Каналы : 2 канала
Расположение каналов : Front: L R
Частота : 48,0 КГц
Битовая глубина : 16 бит
Метод сжатия : С потерями
Размер потока : 53,8 Мбайт (10%)
Выравнивание : Разделение по промежуткам
Продолжительность промежутка : 40 мс. (1,00 видеокадр)
Время предзагрузки промежутка : 500 мс.



Download / Скачать

Хотите скачать бесплатно? Зарегистрируйтесь на сайте (ссылка на регистрацию). Pirat.ca - самый быстрый торрент трекер в рунете!

Как скачивать  ·   Что такое торрент  ·   Рейтинг и ограничения

Пост 02-Янв-2012 00:37 (спустя 4 дня)

Топик был перенесен из форума Мультипликация в форум Отечественные полнометражные мультфильмы

CaptRom
 

miner804

Морской Волк

Пост 12-Июл-2012 22:50 (спустя 6 месяцев 15 дней)

[Q] 

Спасибо!!!
[Профиль]  [ЛС] 

lecsij

Штурман

Пост 09-Окт-2013 18:59 (спустя 1 год 2 месяца)

[Q] 

пожалуйста тайте скорости.
[Профиль]  [ЛС] 

lecsij

Штурман

Пост 09-Окт-2013 19:42 (спустя 43 минуты)

[Q] 

Спасибо!!!
[Профиль]  [ЛС] 

racer666

Лоцман

Пост 04-Фев-2014 18:03 (спустя 3 месяца 25 дней)

[Q] 

спасибо надеюсь дети оценят
[Профиль]  [ЛС] 
Показать сообщения:    
Ответить на тему

Текущее время: Сегодня 10:07

Часовой пояс: GMT + 4



Вы не можете начинать темы
Вы не можете отвечать на сообщения
Вы не можете редактировать свои сообщения
Вы не можете удалять свои сообщения
Вы не можете голосовать в опросах
Вы не можете прикреплять файлы к сообщениям
Вы не можете скачивать файлы

▼ Вниз