ML
     
  Уважаемый Гость!
Вы можете поддержать проект и зарегистрироваться у наших партнеров - онлайн-стратегия MyLands. При регистрации в игре Вы получите код, который сможете активировать после регистрации на pirat.ca и получить 1000 дублонов.

Ваш код:
fcd618d94adc1456bccbde5047c9cd0930e4ae4d
 
     

Новые приключения Бабки Ёжки (Николай Титов, Октябрина Потапова) [2008 г., мультфильм, детский, DVDRip]

Ответить на тему
 
Автор
Сообщение

Пост 12-Окт-2013 12:35

[Q] 

ara1205

-Новые приключения Бабки Ёжки-- Производство: Россия
Год выпуска: 2008 г.
Жанр: мультфильм, детский
Продолжительность: 01:15:49
Перевод: Не требуется
Режиссер: Николай Титов, Октябрина Потапова-Роли озвучили: Армен Джигарханян, Дмитрий Назаров, Татьяна Бондаренко, Александр Пожаров, Дмитрий Филимонов.-Описание: «Новые приключения Бабки Ёжки» — это продолжение истории о маленькой девочке, воспитанной в волшебном лесу сказочными персонажами: Бабой-Ягой, Кощеем Бессмертным, Лешим, Водяным и Кикиморой.- -Качество видео: DVDRip
Контейнер: AVI
Видео кодек: XviD
Аудио кодек: AC3
Видео: 704x352 (2.00:1), 25 fps, XviD MPEG-4 ~2254 kbps avg, 0.364 bit/pixel
Аудио: 48 kHz, AC3 Dolby Digital, 2/0 (L,R) ch, ~320.00 kbps avg
Cубтитры: отсутствуют-
Общее
Полное имя : D:\Новые приключения Бабки Ёжки\Novie.prikljuchenija.babki.eghki.2008.XviD.DVDRip.avi
Формат : AVI
Формат/Информация : Audio Video Interleave
Размер файла : 1,37 Гбайт
Продолжительность : 1 ч. 15 м.
Общий поток : 2584 Кбит/сек
Программа кодирования : VirtualDubMod 1.5.10.2 (build 2540/release)
Библиотека кодирования : VirtualDubMod build 2540/release
Видео
Идентификатор : 0
Формат : MPEG-4 Visual
Профиль формата : Advanced [email protected]
Параметр BVOP формата : 2
Параметр QPel формата : Да
Параметр GMC формата : Без точки перехода
Параметр матрицы формата : Default (MPEG)
Режим смешивания : Сжатый битовый поток
Идентификатор кодека : XVID
Идентификатор кодека/Подсказка : XviD
Продолжительность : 1 ч. 15 м.
Битрейт : 2254 Кбит/сек
Ширина : 704 пикселя
Высота : 352 пикселя
Соотношение сторон : 2,000
Частота кадров : 25,000 кадров/сек
Цветовое пространство : YUV
Субдискретизация насыщенности : 4:2:0
Битовая глубина : 8 бит
Тип развёртки : Прогрессивная
Метод сжатия : С потерями
Бит/(Пиксели*Кадры) : 0.364
Размер потока : 1,19 Гбайт (87%)
Библиотека кодирования : XviD 1.2.0.dev47 (UTC 2006-11-01)
Аудио
Идентификатор : 1
Формат : AC-3
Формат/Информация : Audio Coding 3
Расширение режима : CM (complete main)
Параметр Endianness формата : Big
Идентификатор кодека : 2000
Продолжительность : 1 ч. 15 м.
Вид битрейта : Постоянный
Битрейт : 320 Кбит/сек
Каналы : 2 канала
Расположение каналов : Front: L R
Частота : 48,0 КГц
Битовая глубина : 16 бит
Метод сжатия : С потерями
Размер потока : 174 Мбайт (12%)
Выравнивание : Разделение по промежуткам
Продолжительность промежутка : 40 мс. (1,00 видеокадр)
Время предзагрузки промежутка : 500 мс.
-
-
Download / Скачать

Хотите скачать бесплатно? Зарегистрируйтесь на сайте (ссылка на регистрацию). Pirat.ca - самый быстрый торрент трекер в рунете!

Как скачивать  ·   Что такое торрент  ·   Рейтинг и ограничения

Пост 12-Окт-2013 15:58 (спустя 3 часа)

Топик был перенесен из форума Мультфильмы (Трюм) в форум Отечественные полнометражные мультфильмы
erchine
 

Феонолини

Шкипер

Пост 18-Апр-2014 20:00 (спустя 6 месяцев 6 дней)

[Q] 

Надеюсь повеселит)

_________________
Где есть свет, всегда есть тень. Под светом счастья... Всегда есть тень отчаяния ...
Хун Мин
[Профиль]  [ЛС] 

bolin

Флибустьер

Пост 07-Янв-2015 17:35 (спустя 8 месяцев 18 дней)

[Q] 

Забираю малышам! Спасибо за раздачу!
[Профиль]  [ЛС] 
Показать сообщения:    
Ответить на тему

Текущее время: Сегодня 12:53

Часовой пояс: GMT + 4



Вы не можете начинать темы
Вы не можете отвечать на сообщения
Вы не можете редактировать свои сообщения
Вы не можете удалять свои сообщения
Вы не можете голосовать в опросах
Вы не можете прикреплять файлы к сообщениям
Вы не можете скачивать файлы

▼ Вниз