ML
     
  Уважаемый Гость!
Вы можете поддержать проект и зарегистрироваться у наших партнеров - онлайн-стратегия MyLands. При регистрации в игре Вы получите код, который сможете активировать после регистрации на pirat.ca и получить 1000 дублонов.

Ваш код:
34514219cfad5497a1822ecc1269bea77988f9aa
 
     

Сказка о царе Салтане (Иван Иванов-Вано, Лев Мильчин) [1984 г., мультфильм, фэнтези, семейный, DVDRip]

Ответить на тему
 
Автор
Сообщение

Пост 05-Ноя-2013 15:57

[Q] 

ara1205

-Сказка о царе Салтане-- Производство: СССР
Год выпуска: 1984 г.
Жанр: мультфильм, фэнтези, семейный
Продолжительность: 00:53:08-Режиссер: Иван Иванов-Вано, Лев Мильчин-Роли озвучивали: Анастасия Зуева, Михаил Зимин, Алексей Золотницкий, Роман Филиппов, А. Покровская, Николай Граббе, Мария Виноградова, Борис Новиков, Людмила Иванова, Авангард Леонтьев-Описание: Сказки — это то, что остается у каждого человека от детства. Подарите себе шанс вновь возвратиться в волшебный мир, созданный А. С. Пушкиным.
Приключения отважного царевича Гвидона, прекрасной царевны-Лебедь и царя Салтана напомнят о том, что любовь, верности и сила духа всегда побеждают!- -Качество видео: DVDRip
Контейнер: AVI
Видео кодек: XviD
Аудио кодек: AC3
Видео: 704x528 (4:3), 25,000 fps, 2294 kbps avg, 0.247 bit/pixel
Аудио: AC3 Dolby Digital, 48 kHz, 3/2 (L,C,R,l,r) + LFE ch, 448 kbps
Cубтитры: отсутствуют-
Общее
Полное имя : C:\Users\Ромик\Pictures\Сказка о царе Салтане\Skazka.O.Care.Saltane.1984.DVDRip.[pirat.ca].avi
Формат : AVI
Формат/Информация : Audio Video Interleave
Размер файла : 1,02 Гбайт
Продолжительность : 53 м.
Общий поток : 2752 Кбит/сек
Название фильма : Skazka.O.Care.Saltane.1984.DVDRip.[pirat.ca]
Программа кодирования : VirtualDubMod 1.5.10.2 (build 2540/release)
Видео
Идентификатор : 0
Формат : MPEG-4 Visual
Профиль формата : Advanced [email protected]
Параметр BVOP формата : 2
Параметр QPel формата : Нет
Параметр GMC формата : Без точки перехода
Параметр матрицы формата : Default (MPEG)
Идентификатор кодека : XVID
Идентификатор кодека/Подсказка : XviD
Продолжительность : 53 м.
Битрейт : 2294 Кбит/сек
Ширина : 704 пикселя
Высота : 528 пикселей
Соотношение сторон : 4:3
Частота кадров : 25,000 кадров/сек
Цветовое пространство : YUV
Субдискретизация насыщенности : 4:2:0
Битовая глубина : 8 бит
Тип развёртки : Прогрессивная
Метод сжатия : С потерями
Бит/(Пиксели*Кадры) : 0.247
Размер потока : 872 Мбайт (83%)
Библиотека кодирования : XviD 1.2.0.dev47 (UTC 2006-11-01)
Аудио
Идентификатор : 1
Формат : AC-3
Формат/Информация : Audio Coding 3
Расширение режима : CM (complete main)
Параметр Endianness формата : Big
Идентификатор кодека : 2000
Продолжительность : 53 м.
Вид битрейта : Постоянный
Битрейт : 448 Кбит/сек
Каналы : 6 каналов
Расположение каналов : Front: L C R, Side: L R, LFE
Частота : 48,0 КГц
Битовая глубина : 16 бит
Метод сжатия : С потерями
Размер потока : 170 Мбайт (16%)
Выравнивание : Разделение по промежуткам
Продолжительность промежутка : 40 мс. (1,00 видеокадр)
Время предзагрузки промежутка : 500 мс.
-
-
-
Download / Скачать

Хотите скачать бесплатно? Зарегистрируйтесь на сайте (ссылка на регистрацию). Pirat.ca - самый быстрый торрент трекер в рунете!

Как скачивать  ·   Что такое торрент  ·   Рейтинг и ограничения

alex denver71

Флибустьер

Пост 11-Янв-2015 10:09 (спустя 1 год 2 месяца)

[Q] 

Автору респект!!! еще раз пересмотрю этот замечательный мультфильм вместе с ребятнёй.
[Профиль]  [ЛС] 

FINN54

Гроза морей

Пост 24-Июн-2015 03:25 (спустя 5 месяцев 12 дней)

[Q] 

Советские мультики это вещь Спасибо!!!
Заодно поддержу раздачу
[Профиль]  [ЛС] 
Показать сообщения:    
Ответить на тему

Текущее время: Сегодня 07:50

Часовой пояс: GMT + 4



Вы не можете начинать темы
Вы не можете отвечать на сообщения
Вы не можете редактировать свои сообщения
Вы не можете удалять свои сообщения
Вы не можете голосовать в опросах
Вы не можете прикреплять файлы к сообщениям
Вы не можете скачивать файлы

▼ Вниз