ML
     
  Уважаемый Гость!
Вы можете поддержать проект и зарегистрироваться у наших партнеров - онлайн-стратегия MyLands. При регистрации в игре Вы получите код, который сможете активировать после регистрации на pirat.ca и получить 1000 дублонов.

Ваш код:
db0e0ad91548759ffeb9bb88bed405e1a4b3c165
 
     

Как поймать перо Жар-Птицы (Георгий Гитис, Вячеслав Плотников) [2013 г., мультфильм, фэнтези, DVDRip]

Ответить на тему
 
Автор
Сообщение

Пост 26-Ноя-2013 21:52

[Q] 

aleksey99

--Как поймать перо Жар-Птицы-- Производство: Россия / Dereza, Инлэй Фильм, Кинокомпания CTB, Руссобит-М, Wizart Film
Режиссер: Георгий Гитис, Вячеслав Плотников
Жанр: мультфильм, фэнтези
Год выпуска: 2013 г.
Продолжительность: 01:05:55--Мировая премьера: 24 октября 2013
Российская премьера: 24 октября 2013, «Наше Кино»
Дата выхода DVD: 26 ноября 2013, «Lizard Cinema Trade»
Дата выхода Blu-Ray: 3 декабря 2013, «Lizard Cinema Trade»--В ролях: Михаил Озеров, Дмитрий Дюжев, Юлия Савичева, Андрей Леонов, Нонна Гришаева, Алексей Колган, Михаил Хрусталев, Анатолий Петров, Юлия Галдун, Владимир Горбунов--Описание: Во исполнение воли царя Берендея, младший сын его Иван отправляется на поиски диковинной Жар-птицы. В поисках удачи Ивана Царевича сопровождает верный друг и помощник — Серый Волк, который, обладает всевозможными навыками и всегда спешит на помощь простодушному Ивану. Героев ждут увлекательные и опасные приключения, козни коварных братьев Ивана и его судьбоносная встреча с Еленой Прекрасной. Юные зрители погрузятся в волшебный мир русской сказки, с её традициями и характерной эстетикой, причудливо перемежающейся с приметами современного жанрового кино. Ну, а родители оценят актуальный юмор и модную современную музыку, написанную специально для фильма популярными рок-музыкантами.-- --Качество видео: DVDRip
Контейнер: AVI
Видео кодек: XviD
Аудио кодек: MP3
Видео: 720x400 (1.80:1), 25 fps, XviD build 50 ~1345 kbps avg, 0.19 bit/pixel
Аудио: 48 kHz, MPEG Layer 3, 2 ch, ~128.00 kbps avg
Cубтитры: отсутствуют
Общее
Полное имя : H:\Torrent2\Kak.pojmat.pero.jarpticy.2013.O.DVDRip.700MB_[pirat.ca].avi
Формат : AVI
Формат/Информация : Audio Video Interleave
Размер файла : 699 Мбайт
Продолжительность : 1 ч. 5 м.
Общий поток : 1483 Кбит/сек
Программа кодирования : VirtualDubMod 1.5.10.2 (build 2540/release)
Библиотека кодирования : VirtualDubMod build 2540/release
Видео
Идентификатор : 0
Формат : MPEG-4 Visual
Профиль формата : Advanced [email protected]
Параметр BVOP формата : 2
Параметр QPel формата : Нет
Параметр GMC формата : Без точки перехода
Параметр матрицы формата : Выборочная
Идентификатор кодека : XVID
Идентификатор кодека/Подсказка : XviD
Продолжительность : 1 ч. 5 м.
Битрейт : 1345 Кбит/сек
Ширина : 720 пикселей
Высота : 400 пикселей
Соотношение сторон : 16:9
Частота кадров : 25,000 кадров/сек
Цветовое пространство : YUV
Субдискретизация насыщенности : 4:2:0
Битовая глубина : 8 бит
Тип развёртки : Прогрессивная
Метод сжатия : С потерями
Бит/(Пиксели*Кадры) : 0.187
Размер потока : 634 Мбайт (91%)
Библиотека кодирования : XviD 1.2.1 (UTC 2008-12-04)
Аудио
Идентификатор : 1
Формат : MPEG Audio
Версия формата : Version 1
Профиль формата : Layer 3
Идентификатор кодека : 55
Идентификатор кодека/Подсказка : MP3
Продолжительность : 1 ч. 5 м.
Вид битрейта : Постоянный
Битрейт : 128 Кбит/сек
Каналы : 2 канала
Частота : 48,0 КГц
Метод сжатия : С потерями
Размер потока : 60,4 Мбайт (9%)
Выравнивание : Соединение по промежуткам
Продолжительность промежутка : 40 мс. (1,00 видеокадр)
Время предзагрузки промежутка : 504 мс.
Библиотека кодирования : LAME3.99r
Настройки программы : -m s -V 4 -q 2 -lowpass 17 -b 128
Download / Скачать

Хотите скачать бесплатно? Зарегистрируйтесь на сайте (ссылка на регистрацию). Pirat.ca - самый быстрый торрент трекер в рунете!

Как скачивать  ·   Что такое торрент  ·   Рейтинг и ограничения



Последний раз редактировалось: aleksey99 (2013-11-27 15:26), всего редактировалось 1 раз

Варон

Корсар

Пост 26-Ноя-2013 22:10 (спустя 18 минут)

[Q] 

заценим Спасибо!!!
[Профиль]  [ЛС] 

Hireling

Морской Волк

Пост 26-Ноя-2013 22:15 (спустя 4 минуты)

[Q] 

Люди! Берегите мозг - не смотрите это дерьмо! С Мельницей ни в какое сравнение не идёт. 3 из 10
[Профиль]  [ЛС] 

Раемия

Флибустьер

Пост 26-Ноя-2013 23:10 (спустя 54 минуты)

[Q] 

Да,ладно....рисовка вроде ничего так...пожалуй рискну посмотреть! cx

_________________
Любите кроликов!!!…и они отплатят вам тем же…
[Профиль]  [ЛС] 

dragan123

Морской Волк

Пост 26-Ноя-2013 23:21 (спустя 11 минут)

[Q] 

спасибки заценим надеюсь неплохой
[Профиль]  [ЛС] 

Platina-18

Лоцман

Пост 26-Ноя-2013 23:28 (спустя 7 минут)

[Q] 

спасибо! посмотрим, заценим Раздающему респект!
[Профиль]  [ЛС] 

Alex Yz

Гроза морей

Пост 26-Ноя-2013 23:55 (спустя 26 минут)

[Q] 

Спасибо, посмотрят дети, сообщу как понравилось!!! Автору респект!!!
[Профиль]  [ЛС] 

Совунья

Морской Волк

Пост 27-Ноя-2013 08:03 (спустя 8 часов)

[Q] 

Смотрели в кинотеатре. "Иван Царевич и Серый Волк" (Владимир Торопчин) 2011 г. лично мне понравился больше. Но и это дети смотрели с удовольствием... На вкус и цвет.....
Раздающему респект!

_________________
Я верю в честность Президента, и в неподкупность постовых! В заботу банка о клиентах. В вампиров верю, в домовых.
[Профиль]  [ЛС] 

Раемия

Флибустьер

Пост 28-Ноя-2013 23:25 (спустя 1 день 15 часов)

[Q] 

Да вроде хороший мульт! Посмотрела с удовольствием,а племяшка вообще в восторге!!!Автору раздачи СПАСИБО! Всем качать!!!

_________________
Любите кроликов!!!…и они отплатят вам тем же…
[Профиль]  [ЛС] 

srg078rus

Корсар

97

Пост 04-Дек-2013 17:42 (спустя 5 дней)

[Q] 

Спасибо!!!

_________________
[Профиль]  [ЛС] 
Показать сообщения:    
Ответить на тему

Текущее время: Сегодня 08:08

Часовой пояс: GMT + 4



Вы не можете начинать темы
Вы не можете отвечать на сообщения
Вы не можете редактировать свои сообщения
Вы не можете удалять свои сообщения
Вы не можете голосовать в опросах
Вы не можете прикреплять файлы к сообщениям
Вы не можете скачивать файлы

▼ Вниз