ML
     
  Уважаемый Гость!
Вы можете поддержать проект и зарегистрироваться у наших партнеров - онлайн-стратегия MyLands. При регистрации в игре Вы получите код, который сможете активировать после регистрации на pirat.ca и получить 1000 дублонов.

Ваш код:
193c38d0130f05c24de871678ea3ac181461757d
 
     

Как поймать перо Жар-Птицы (Георгий Гитис, Вячеслав Плотников) [2013 г., мультфильм, фэнтези, DVDRip] [Лицензия]

Ответить на тему
 
Автор
Сообщение

Пост 27-Ноя-2013 12:52

[Q] 

ara1205

-Как поймать перо Жар-Птицы-- Производство: Россия
Год выпуска: 2013 г.
Жанр: мультфильм, фэнтези
Продолжительность: 01:05:55-Режиссер: Георгий Гитис, Вячеслав Плотников-В ролях: Михаил Озеров, Дмитрий Дюжев, Юлия Савичева, Андрей Леонов, Нонна Гришаева, Алексей Колган, Михаил Хрусталев, Анатолий Петров, Юлия Галдун, Владимир Горбунов-Описание: Во исполнение воли царя Берендея, младший сын его Иван отправляется на поиски диковинной Жар-птицы. В поисках удачи Ивана Царевича сопровождает верный друг и помощник — Серый Волк, который, обладает всевозможными навыками и всегда спешит на помощь простодушному Ивану. Героев ждут увлекательные и опасные приключения, козни коварных братьев Ивана и его судьбоносная встреча с Еленой Прекрасной. Юные зрители погрузятся в волшебный мир русской сказки, с её традициями и характерной эстетикой, причудливо перемежающейся с приметами современного жанрового кино. Ну, а родители оценят актуальный юмор и модную современную музыку, написанную специально для фильма популярными рок-музыкантами.- -Качество видео: DVDRip
Контейнер: AVI
Видео кодек: XviD
Аудио кодек: AC3
Видео: 720x400 , 25.000 fps, 2087 Kbps, 0.290 bit/pixel
Аудио: 48.0 KHz, 6 ch, 448 Kbps
Cубтитры: отсутствуют-
Общее
Полное имя : C:\Users\Ромик\Pictures\Как поймать перо Жар-Птицы\Kak.pojmat.pero.jarpticy.2013.O.DVDRip.1200MB.avi
Формат : AVI
Формат/Информация : Audio Video Interleave
Размер файла : 1,17 Гбайт
Продолжительность : 1 ч. 5 м.
Общий поток : 2544 Кбит/сек
Программа кодирования : VirtualDubMod 1.5.10.2 (build 2540/release)
Библиотека кодирования : VirtualDubMod build 2540/release
Видео
Идентификатор : 0
Формат : MPEG-4 Visual
Профиль формата : Advanced [email protected]
Параметр BVOP формата : 2
Параметр QPel формата : Нет
Параметр GMC формата : Без точки перехода
Параметр матрицы формата : Выборочная
Идентификатор кодека : XVID
Идентификатор кодека/Подсказка : XviD
Продолжительность : 1 ч. 5 м.
Битрейт : 2087 Кбит/сек
Ширина : 720 пикселей
Высота : 400 пикселей
Соотношение сторон : 16:9
Частота кадров : 25,000 кадров/сек
Цветовое пространство : YUV
Субдискретизация насыщенности : 4:2:0
Битовая глубина : 8 бит
Тип развёртки : Прогрессивная
Метод сжатия : С потерями
Бит/(Пиксели*Кадры) : 0.290
Размер потока : 984 Мбайт (82%)
Библиотека кодирования : XviD 1.2.1 (UTC 2008-12-04)
Аудио
Идентификатор : 1
Формат : AC-3
Формат/Информация : Audio Coding 3
Расширение режима : CM (complete main)
Параметр Endianness формата : Big
Идентификатор кодека : 2000
Продолжительность : 1 ч. 5 м.
Вид битрейта : Постоянный
Битрейт : 448 Кбит/сек
Каналы : 6 каналов
Расположение каналов : Front: L C R, Side: L R, LFE
Частота : 48,0 КГц
Битовая глубина : 16 бит
Метод сжатия : С потерями
Размер потока : 211 Мбайт (18%)
Выравнивание : Разделение по промежуткам
Продолжительность промежутка : 40 мс. (1,00 видеокадр)
Время предзагрузки промежутка : 500 мс.
-
-
-
Download / Скачать

Хотите скачать бесплатно? Зарегистрируйтесь на сайте (ссылка на регистрацию). Pirat.ca - самый быстрый торрент трекер в рунете!

Как скачивать  ·   Что такое торрент  ·   Рейтинг и ограничения

sergey718

Корсар

Пост 27-Ноя-2013 14:11 (спустя 1 час 19 минут)

[Q] 

Супер! Раздающему респект! Спасибо,классный мульт для ребёнка!!!
[Профиль]  [ЛС] 

sppi9

Морской Волк

Пост 27-Ноя-2013 16:37 (спустя 2 часа 26 минут)

[Q] 

спасибы, давно ждал
[Профиль]  [ЛС] 

kinstintin

Гроза морей

Пост 27-Ноя-2013 20:43 (спустя 4 часа)

[Q] 

Спасибо!!!
хоть отзывы и разнообразны, но скачаю - посмотрю что получилось из этого
[Профиль]  [ЛС] 

allexxxv

Морской Волк

Пост 28-Ноя-2013 15:53 (спустя 19 часов)

[Q] 

Спасибо!!! скачаю для ребенка.
[Профиль]  [ЛС] 

rekrut26

Морской Волк

67

Пост 29-Ноя-2013 20:42 (спустя 1 день 4 часа)

[Q] 

Ребёнку не понравился вообще,а за раздачу спасибо

_________________
[Профиль]  [ЛС] 

polozm

Легенда

Пост 29-Ноя-2013 22:13 (спустя 1 час 31 минута)

[Q] 

456091Ребёнку не понравился вообще,а за раздачу спасибо
да нельзя такое ребенку показывать..... be bc

_________________
mac mini -2.0 GHz Intel Core i7/ 8 GB DDR3. /Intel HD 3000(512mb)OS X 10.9 Mavericks
[Профиль]  [ЛС] 

ДМИТРИЙ1402

Лоцман

Пост 30-Ноя-2013 00:45 (спустя 2 часа 32 минуты)

[Q] 

забавный мульт!))
[Профиль]  [ЛС] 

rekrut26

Морской Волк

67

Пост 30-Ноя-2013 14:00 (спустя 13 часов)

[Q] 

456125да нельзя такое ребенку показывать.....
Да уже понял,но думал то что мульт для детей

_________________
[Профиль]  [ЛС] 

KIRST

Корсар

Пост 30-Ноя-2013 14:42 (спустя 42 минуты)

[Q] 

Спасибо!!! Посмотрим.
[Профиль]  [ЛС] 

seta

Шкипер

Пост 04-Дек-2013 23:58 (спустя 4 дня)

[Q] 

Спасибо,классный мульт для ребёнка!!! Супер!
[Профиль]  [ЛС] 

VNXX

Корсар

Пост 05-Дек-2013 00:14 (спустя 16 минут)

[Q] 

Спасибо!!! Супер! Качаю...
[Профиль]  [ЛС] 

seta

Шкипер

Пост 05-Дек-2013 22:52 (спустя 22 часа)

[Q] 

Спасибо!!! На любителя малому понравился
[Профиль]  [ЛС] 

kinstintin

Гроза морей

Пост 08-Дек-2013 20:43 (спустя 2 дня 21 час)

[Q] 

455108 Спасибо!!!
хоть отзывы и разнообразны, но скачаю - посмотрю что получилось из этого
маразм крепчал... а еще 0+
разучились снимать уже и мультфильмы...
[Профиль]  [ЛС] 

sashafandey

Морской Волк

Пост 08-Дек-2013 22:27 (спустя 1 час 44 минуты)

[Q] 

Ня? малому понравился
[Профиль]  [ЛС] 

OleksBy

Корсар

Пост 09-Дек-2013 13:20 (спустя 14 часов)

[Q] 

Спасибо!!! Раздающему респект! понравилось
[Профиль]  [ЛС] 

ELEN

Морской Волк

Пост 11-Дек-2013 16:57 (спустя 2 дня 3 часа)

[Q] 

СКАЧАЮ НО , РЕБЯТА ТОГДА ПИШИТЕ ОТ СКОЛЬКИ + !!!
[Профиль]  [ЛС] 

Demon198455

Шкипер

Пост 14-Дек-2013 16:07 (спустя 2 дня 23 часа)

[Q] 

!COOL! Супер!
[Профиль]  [ЛС] 

femaxx

Корсар

Пост 15-Дек-2013 17:45 (спустя 1 день 1 час)

[Q] 

Спасибо!!!
[Профиль]  [ЛС] 

mel2517

Юнга

Пост 15-Июл-2014 14:31 (спустя 6 месяцев 30 дней)

[Q] 

спасибо, детям понравился
[Профиль]  [ЛС] 

alex denver71

Флибустьер

Пост 09-Янв-2015 18:58 (спустя 5 месяцев 25 дней)

[Q] 

Автору респект!!! За старание Лови бочку Сам мульт сыну не понравился,не за хотел смотреть.
[Профиль]  [ЛС] 
Показать сообщения:    
Ответить на тему

Текущее время: Сегодня 18:07

Часовой пояс: GMT + 4



Вы не можете начинать темы
Вы не можете отвечать на сообщения
Вы не можете редактировать свои сообщения
Вы не можете удалять свои сообщения
Вы не можете голосовать в опросах
Вы не можете прикреплять файлы к сообщениям
Вы не можете скачивать файлы

▼ Вниз