ML
     
  Уважаемый Гость!
Вы можете поддержать проект и зарегистрироваться у наших партнеров - онлайн-стратегия MyLands. При регистрации в игре Вы получите код, который сможете активировать после регистрации на pirat.ca и получить 1000 дублонов.

Ваш код:
47bfc18b89c74e4ae0d974e9b6943639e2bff08e
 
     

Про Федота-стрельца, удалого молодца (Людмила Стеблянко) [2008 г., мультфильм, фэнтези, триллер, приключения, семейный, DVDRip] (Original)

Ответить на тему
 
Автор
Сообщение

Пост 03-Янв-2012 01:20

[Q] 

MixaM

Шкипер

Про Федота-стрельца, удалого молодца
Год выпуска: 2008
Мировая премьера: 18 декабря 2008
Российская премьера: 18 декабря 2008
Дата выхода DVD: 15 января 2009
Производство: Россия,Мельница
Жанр: мультфильм, фэнтези, триллер, приключения, семейный
Продолжительность: 01:13:00
Перевод: Original
Оригинальный аудиопоток: Русский
Режиссер: Людмила Стеблянко
В ролях : Сергей Безруков (Федот); Чулпан Хаматова (Маруся); Виктор Сухоруков (Царь); Дмитрий Дюжев (Генерал); Александр Ревва (Баба-яга); Евгения Добровольская (Нянька); Михаил Ефремов (То, чего не может быть); Ирина Безрукова (Царевна)
Описание: Мультфильм повествует о Федоте-стрельце, который служит у капризного, глуповатого и самовлюбленного царька. Однажды на охоте молодец ловит голубицу, которая оказывается зачарованной красной девицей, и тут же нарекает себя его женой. Ее кулинарные способности, вкупе с двумя волшебниками из ларца предвещают безоблачное будущее. Но старый государь, прознав о немыслимой красоте Маруси, решает, во что бы то ни стало сгубить Федота, под предлогом не выполненного задания государственной важности. Заручившись поддержкой верного генерала (а тот, свою очередь, пользуясь советами Бабки Ежки) он придумывает для своего служаки невыполнимые задания. (Раздобудь к утру ковер - / шитый золотом узор! / Чтоб на нем была видна, / как на карте, вся страна. Подь, за горы, за луга, / и сыщи мне там оленя, / чтоб из золота рога.). Маруся неоднократно выручала своего суженного, пока царь не изрек слишком изощренную просьбу: «Исхитрись-ка мне добыть, / То, чаво не может быть!»

Источник/Качество: DVDRip
Формат: AVI
Видео кодек: XviD
Аудио кодек: MP3
Видео: XVID 704x304 25.00fps 1188Kbps
Аудио: MPEG Audio Layer 3 48000Hz stereo 130Kbps
Общее
Полное имя : D:\Download\Torrents\Pro_Fedota-strelca_2008.avi
Формат : AVI
Формат/Информация : Audio Video Interleave
Размер файла : 701 Мбайт
Продолжительность : 1 ч. 13 м.
Режим общего битрейта : Переменный
Общий поток : 1331 Кбит/сек
Программа кодирования : VirtualDubMod 1.5.10.2 (build 2540/release)
Библиотека кодирования : VirtualDubMod build 2540/release
Видео
Идентификатор : 0
Формат : MPEG-4 Visual
Профиль формата : Advanced [email protected]
Параметр BVOP формата : 2
Параметр QPel формата : Нет
Параметр GMC формата : Без точки перехода
Параметр матрицы формата : Default (H.263)
Режим смешивания : Сжатый битовый поток
Идентификатор кодека : XVID
Идентификатор кодека/Подсказка : XviD
Продолжительность : 1 ч. 13 м.
Битрейт : 1188 Кбит/сек
Ширина : 704 пикселя
Высота : 304 пикселя
Соотношение сторон : 2,35:1
Частота кадров : 25,000 кадров/сек
Цветовое пространство : YUV
Субдискретизация насыщенности : 4:2:0
Битовая глубина : 8 бит
Тип развёртки : Прогрессивная
Метод сжатия : С потерями
Бит/(Пиксели*Кадры) : 0.222
Размер потока : 626 Мбайт (89%)
Библиотека кодирования : XviD 1.2.1 (UTC 2008-12-04)
Аудио
Идентификатор : 1
Формат : MPEG Audio
Версия формата : Version 1
Профиль формата : Layer 3
Режим : Joint stereo
Расширение режима : MS Stereo
Идентификатор кодека : 55
Идентификатор кодека/Подсказка : MP3
Продолжительность : 1 ч. 13 м.
Вид битрейта : Переменный
Битрейт : 128 Кбит/сек
Каналы : 2 канала
Частота : 48,0 КГц
Метод сжатия : С потерями
Размер потока : 68,6 Мбайт (10%)
Выравнивание : Соединение по промежуткам
Продолжительность промежутка : 24 мс. (0,60 видеокадр)
Время предзагрузки промежутка : 489 мс.
Download / Скачать

Хотите скачать бесплатно? Зарегистрируйтесь на сайте (ссылка на регистрацию). Pirat.ca - самый быстрый торрент трекер в рунете!

Как скачивать  ·   Что такое торрент  ·   Рейтинг и ограничения



Последний раз редактировалось: MixaM (2012-01-03 23:03), всего редактировалось 1 раз

Пост 03-Янв-2012 23:12 (спустя 21 час)

Топик был перенесен из форума Мультипликация в форум Отечественные полнометражные мультфильмы

Sirota
 

ficus42

Корсар

Пост 13-Янв-2012 18:01 (спустя 10 дней)

[Q] 

Спасибо !!! Раздающему респект !!!.....
[Профиль]  [ЛС] 

Колямба

Морской Волк

Пост 17-Янв-2012 01:32 (спустя 3 дня)

[Q] 

классный фильмец
[Профиль]  [ЛС] 

Chiochanka

Морской Волк

Пост 13-Фев-2012 18:32 (спустя 27 дней)

[Q] 

смотрела и не раз) веселый мультик!
[Профиль]  [ЛС] 

Ди_Анна

Лоцман

Пост 15-Фев-2012 01:40 (спустя 1 день 7 часов)

[Q] 

[Профиль]  [ЛС] 

Andrello

Шкипер

Пост 19-Фев-2012 16:46 (спустя 4 дня)

[Q] 

класс, понравился подбор озвучки. голоса актеров просто обалденно подходят
[Профиль]  [ЛС] 

UncleFather

Легенда

Пост 20-Фев-2012 18:46 (спустя 1 день 2 часа)

[Q] 

Посмотрю обязательно... Пока только Филатова слышал

_________________
Одни боялись Пью, другие - Билли Бонса, а меня... меня боялся сам Флинт
[Профиль]  [ЛС] 

K-0-t

Морской Волк

544

Пост 29-Фев-2012 16:51 (спустя 8 дней)

[Q] 

[Профиль]  [ЛС] 

artema78

Лоцман

Пост 07-Мар-2012 20:15 (спустя 7 дней)

[Q] 

прикольный мульт, спасибо
[Профиль]  [ЛС] 

tayborey

Морской Волк

Пост 11-Май-2012 20:16 (спустя 2 месяца 4 дня)

[Q] 

но
[Профиль]  [ЛС] 

Алоизий

Флибустьер

Пост 05-Ноя-2012 11:04 (спустя 5 месяцев 24 дня)

[Q] 

[Профиль]  [ЛС] 

zludna

Морской Волк

Пост 02-Фев-2013 16:47 (спустя 2 месяца 27 дней)

[Q] 

[Профиль]  [ЛС] 

aleks77l

Морской Волк

Пост 08-Фев-2013 21:15 (спустя 6 дней)

[Q] 

[Профиль]  [ЛС] 

Xonline

Шкипер

Пост 16-Мар-2013 21:44 (спустя 1 месяц 8 дней)

[Q] 

Мультик хороший. Но мне после Филатова уже не нравится.
[Профиль]  [ЛС] 

sevensv

Легенда

2598

Пост 01-Дек-2013 01:07 (спустя 8 месяцев 14 дней)

[Q] 

Отличный мультик....не то что зарубежная хрень!
[Профиль]  [ЛС] 

pandimka

Лоцман

Пост 08-Июл-2014 22:56 (спустя 7 месяцев 7 дней)

[Q] 

Спасибо большое! !COOL!
[Профиль]  [ЛС] 

alex denver71

Флибустьер

Пост 18-Авг-2014 08:11 (спустя 1 месяц 9 дней)

[Q] 

Автору респект!!! Отличнейший мульт!!!Веселый,с юмором bj
[Профиль]  [ЛС] 

prjadkin

Флибустьер

Пост 31-Окт-2014 10:08 (спустя 2 месяца 13 дней)

[Q] 

спасибо автору Лови бочку
[Профиль]  [ЛС] 
Показать сообщения:    
Ответить на тему

Текущее время: Сегодня 07:06

Часовой пояс: GMT + 4



Вы не можете начинать темы
Вы не можете отвечать на сообщения
Вы не можете редактировать свои сообщения
Вы не можете удалять свои сообщения
Вы не можете голосовать в опросах
Вы не можете прикреплять файлы к сообщениям
Вы не можете скачивать файлы

▼ Вниз