ML
     
  Уважаемый Гость!
Вы можете поддержать проект и зарегистрироваться у наших партнеров - онлайн-стратегия MyLands. При регистрации в игре Вы получите код, который сможете активировать после регистрации на pirat.ca и получить 1000 дублонов.

Ваш код:
fe4e93b754a7c2b306fcfc8bc32532ea1cf59d3b
 
     

Иван Царевич и Серый Волк 2 (Владимир Торопчин) [2013 г., мультфильм, приключения, семейный, фэнтези, DVDRip]

Ответить на тему
 
Автор
Сообщение

Пост 16-Янв-2014 18:55

[Q] 

aleksey99

--Иван Царевич и Серый Волк 2-- Производство: Россия
Режиссер: Владимир Торопчин
Жанр: мультфильм, приключения, семейный, фэнтези
Год выпуска: 2013 г.
Продолжительность: 01:09:46--Мировая премьера: 26 декабря 2013
Российская премьера: 26 декабря 2013, «Наше Кино»
Дата выхода DVD: 21 января 2014, «Lizard Cinema Trade»
Релиз на Blu-Ray: 21 января 2014, «Lizard Cinema Trade»--В ролях: Никита Ефремов, Татьяна Бунина, Иван Охлобыстин, Михаил Боярский, Ирина Рахманова, Александр Боярский--Описание: В Тридевятом царстве, где живут наши герои — тишь, да благодать. Иван женился на Василисе, и «жили они долго и счастливо», да не тут-то было. Иван целыми днями пропадает с Волком на службе — укрепляет рубежи и оборонную мощь, мечтает перевести стрелки часов на семь часов назад, чтобы меньше спать, и больше работать. А Василисе — скучно, как всем девушкам, ей хочется романтики, ну, такой, как в сказках. И тогда она решает организовать свое похищение… Однако, когда такое бывало, что в сказках все получалось так, как задумывалось?-- --Трейлер--Качество видео: DVDRip
Контейнер: AVI
Видео кодек: XviD
Аудио кодек: MP3
Видео: 720x400 (1.80:1), 25 fps, XviD build 73 ~1261 kbps avg, 0.17 bit/pixel
Аудио: 48 kHz, MPEG Layer 3, 2 ch, ~128.00 kbps avg
Cубтитры: Отсутствуют
Общее
Полное имя : H:\Torrent2\Ivan.Tsarevich.i.volk.2.2013.O.DVDRip.700MB[pirat.ca].avi
Формат : AVI
Формат/Информация : Audio Video Interleave
Размер файла : 698 Мбайт
Продолжительность : 1 ч. 9 м.
Общий поток : 1399 Кбит/сек
Программа кодирования : VirtualDubMod 1.5.10.3 | www.virtualdub-fr.org || (build 2550/release)
Библиотека кодирования : VirtualDubMod build 2550/release
Видео
Идентификатор : 0
Формат : MPEG-4 Visual
Профиль формата : Advanced [email protected]
Параметр BVOP формата : 1
Параметр QPel формата : Нет
Параметр GMC формата : Без точки перехода
Параметр матрицы формата : Default (MPEG)
Идентификатор кодека : XVID
Идентификатор кодека/Подсказка : XviD
Продолжительность : 1 ч. 9 м.
Битрейт : 1262 Кбит/сек
Ширина : 720 пикселей
Высота : 400 пикселей
Соотношение сторон : 16:9
Частота кадров : 25,000 кадров/сек
Цветовое пространство : YUV
Субдискретизация насыщенности : 4:2:0
Битовая глубина : 8 бит
Тип развёртки : Прогрессивная
Метод сжатия : С потерями
Бит/(Пиксели*Кадры) : 0.175
Размер потока : 630 Мбайт (90%)
Библиотека кодирования : XviD 73
Аудио
Идентификатор : 1
Формат : MPEG Audio
Версия формата : Version 1
Профиль формата : Layer 3
Идентификатор кодека : 55
Идентификатор кодека/Подсказка : MP3
Продолжительность : 1 ч. 9 м.
Вид битрейта : Постоянный
Битрейт : 128 Кбит/сек
Каналы : 2 канала
Частота : 48,0 КГц
Метод сжатия : С потерями
Размер потока : 63,9 Мбайт (9%)
Выравнивание : Соединение по промежуткам
Продолжительность промежутка : 40 мс. (1,00 видеокадр)
Время предзагрузки промежутка : 504 мс.
Библиотека кодирования : LAME3.99r
Настройки программы : -m s -V 4 -q 2 -lowpass 17 -b 128
Download / Скачать

Хотите скачать бесплатно? Зарегистрируйтесь на сайте (ссылка на регистрацию). Pirat.ca - самый быстрый торрент трекер в рунете!

Как скачивать  ·   Что такое торрент  ·   Рейтинг и ограничения

dbssk

Лоцман

Пост 16-Янв-2014 19:09 (спустя 13 минут)

[Q] 

Посмотрим)) Раздающему респект!
[Профиль]  [ЛС] 

Martini_ice

Морской Волк

Пост 16-Янв-2014 19:12 (спустя 3 минуты)

[Q] 

спасибо Лови бочку
[Профиль]  [ЛС] 

Znoi

Флибустьер

1163

Пост 16-Янв-2014 19:17 (спустя 5 минут)

[Q] 

Спасибо!!! за релиз
[Профиль]  [ЛС] 

devil_man

Штурман

Пост 16-Янв-2014 19:48 (спустя 31 минута)

[Q] 

бочку кинул,спасибо за оперативное хорошее качество

_________________
[Профиль]  [ЛС] 

papanj

Легенда

Пост 16-Янв-2014 20:53 (спустя 1 час 5 минут)

[Q] 

Автору респект!!! СПАСИБО!!! Супер!

_________________
"Не понимаю, зачем думать все время о других..." - "Тебе этого не понять, потому что ты не король..."
Я.Корчак. Король Матиуш Первый
[Профиль]  [ЛС] 

Ambeg

Корсар

Пост 16-Янв-2014 22:18 (спустя 1 час 25 минут)

[Q] 

Ня! !COOL! Спасибо
[Профиль]  [ЛС] 

Пост 16-Янв-2014 22:21 (спустя 2 минуты)

Топик был перенесен из форума Мультфильмы (Трюм) в форум Новинки (HD|DVD|BD| TV|SAT|PDTV| - Rips)
erchine
 

лысый 9999

Морской Волк

Пост 16-Янв-2014 22:28 (спустя 9 минут)

[Q] 

спасибо!!! Лови бочку
[Профиль]  [ЛС] 

seva-peva

Штурман

9

Пост 16-Янв-2014 23:21 (спустя 52 минуты)

[Q] 

Лови бочку спасиб
[Профиль]  [ЛС] 

Женя1493

Морской Волк

Пост 16-Янв-2014 23:28 (спустя 7 минут)

[Q] 

качаю Спасибо!!! Автору респект!!!
[Профиль]  [ЛС] 

Hrun

Штурман

167

Пост 16-Янв-2014 23:33 (спустя 4 минуты)

[Q] 

Спасибо,давно ждал Спасибо!!!
[Профиль]  [ЛС] 

jesus-w

Корсар

Пост 16-Янв-2014 23:40 (спустя 7 минут)

[Q] 

Лови бочку Супер!
[Профиль]  [ЛС] 

гришасемечкин

Корсар

1171

Пост 16-Янв-2014 23:52 (спустя 11 минут)

[Q] 

Спасибо ВЫ лучшие!!! Лови бочку
[Профиль]  [ЛС] 

Saevus

Корсар

Пост 17-Янв-2014 00:18 (спустя 26 минут)

[Q] 

Спасибо! aa
[Профиль]  [ЛС] 

Sector_X

Гроза морей

309

Пост 17-Янв-2014 00:33 (спустя 15 минут)

[Q] 

Огромное Спасибо!!!

_________________
[Профиль]  [ЛС] 

Smulya

Морской Волк

80

Пост 17-Янв-2014 02:01 (спустя 1 час 27 минут)

[Q] 

до богатырей немного не дотягивает Автору респект!!!

_________________
[Профиль]  [ЛС] 

Jek@

Легенда

Пост 17-Янв-2014 03:54 (спустя 1 час 53 минуты)

[Q] 

Спасибо!!! .
[Профиль]  [ЛС] 

KoSkud

Флибустьер

Пост 17-Янв-2014 10:20 (спустя 6 часов)

[Q] 

Автору спасибо за качество,фактически лицуха.За нормальный размерчик отдельное спасибо

_________________
Учись-играя,играя-учись
[Профиль]  [ЛС] 

got70

Легенда

752

Пост 17-Янв-2014 20:53 (спустя 10 часов)

[Q] 

478618до богатырей немного не дотягивает Автору респект!!!
Это слабо сказано.Не впечатлило ch

_________________
Добро непременно победит зло!Непременно...Затем поставит на колени,и зверски УБЬЁТ!
[Профиль]  [ЛС] 

serg_bmw

Гроза морей

650

Пост 17-Янв-2014 21:22 (спустя 29 минут)

[Q] 

Спасибо!!! Лови бочку

_________________
[Профиль]  [ЛС] 

GOLD_ROOT

Морской Волк

Пост 17-Янв-2014 22:05 (спустя 42 минуты)

[Q] 

О, нифига ))). 2я часть ). Спасибо!!!

_________________
[Профиль]  [ЛС] 

Kronin

Шкипер

Пост 19-Янв-2014 01:37 (спустя 1 день 3 часа)

[Q] 

Стоит смотреть?
На форуме  [Профиль]  [ЛС] 

networmcast

Пост 19-Янв-2014 19:15 (спустя 17 часов)

[Q] 

479663Стоит смотреть?
Мне не понравилось, дочери - наоборот - так что На любителя
[Профиль]  [ЛС] 

kisu

Гроза морей

Пост 19-Янв-2014 19:35 (спустя 19 минут)

[Q] 

противоречивые мнения но глянем!
[Профиль]  [ЛС] 

gfill

Шкипер

Пост 19-Янв-2014 22:58 (спустя 3 часа)

[Q] 

с юмором мультик
[Профиль]  [ЛС] 

Han.M

Флибустьер

Пост 24-Фев-2014 21:53 (спустя 1 месяц 4 дня)

[Q] 

Первая часть круче была
[Профиль]  [ЛС] 
Показать сообщения:    
Ответить на тему

Текущее время: Сегодня 14:31

Часовой пояс: GMT + 4



Вы не можете начинать темы
Вы не можете отвечать на сообщения
Вы не можете редактировать свои сообщения
Вы не можете удалять свои сообщения
Вы не можете голосовать в опросах
Вы не можете прикреплять файлы к сообщениям
Вы не можете скачивать файлы

▼ Вниз