ML
     
  Уважаемый Гость!
Вы можете поддержать проект и зарегистрироваться у наших партнеров - онлайн-стратегия MyLands. При регистрации в игре Вы получите код, который сможете активировать после регистрации на pirat.ca и получить 1000 дублонов.

Ваш код:
193c38d0130f05c24de871678ea3ac181461757d
 
     

Иван Царевич и Серый Волк 2 (Владимир Торопчин) [2013 г., мультфильм, приключения, семейный, фэнтези, DVDRip]

Страницы :  1, 2, 3  След.

Ответить на тему
 
Автор
Сообщение

Пост 17-Янв-2014 09:20

[Q] 

aleksey99

--Иван Царевич и Серый Волк 2-- Производство: Россия
Режиссер: Владимир Торопчин
Жанр: мультфильм, приключения, семейный, фэнтези
Год выпуска: 2013 г.
Продолжительность: 01:09:46--Мировая премьера: 26 декабря 2013
Российская премьера: 26 декабря 2013, «Наше Кино»
Дата выхода DVD: 21 января 2014, «Lizard Cinema Trade»
Релиз на Blu-Ray: 21 января 2014, «Lizard Cinema Trade»--В ролях: Никита Ефремов, Татьяна Бунина, Иван Охлобыстин, Михаил Боярский, Ирина Рахманова, Александр Боярский--Описание: В Тридевятом царстве, где живут наши герои — тишь, да благодать. Иван женился на Василисе, и «жили они долго и счастливо», да не тут-то было. Иван целыми днями пропадает с Волком на службе — укрепляет рубежи и оборонную мощь, мечтает перевести стрелки часов на семь часов назад, чтобы меньше спать, и больше работать. А Василисе — скучно, как всем девушкам, ей хочется романтики, ну, такой, как в сказках. И тогда она решает организовать свое похищение… Однако, когда такое бывало, что в сказках все получалось так, как задумывалось?-- --Трейлер--Качество видео: DVDRip
Контейнер: AVI
Видео кодек: XviD
Аудио кодек: AC3
Видео: 720x400 (1.80:1), 25 fps, XviD build 50 ~2347 kbps avg, 0.33 bit/pixel
Аудио: 48 kHz, AC3 Dolby Digital, 3/2 (L,C,R,l,r) + LFE ch, ~448 kbps
Cубтитры: Отсутствуют
Общее
Полное имя : H:\Torrent2\Ivan.Tsarevich.i.Seriy.Volk.2.O.DVDRip.1400MB.avi
Формат : AVI
Формат/Информация : Audio Video Interleave
Размер файла : 1,37 Гбайт
Продолжительность : 1 ч. 9 м.
Общий поток : 2806 Кбит/сек
Программа кодирования : VirtualDubMod 1.5.10.3 | www.virtualdub-fr.org || (build 2550/release)
Библиотека кодирования : VirtualDubMod build 2550/release
Видео
Идентификатор : 0
Формат : MPEG-4 Visual
Профиль формата : Advanced [email protected]
Параметр BVOP формата : 2
Параметр QPel формата : Нет
Параметр GMC формата : Без точки перехода
Параметр матрицы формата : Default (MPEG)
Идентификатор кодека : XVID
Идентификатор кодека/Подсказка : XviD
Продолжительность : 1 ч. 9 м.
Битрейт : 2348 Кбит/сек
Ширина : 720 пикселей
Высота : 400 пикселей
Соотношение сторон : 16:9
Частота кадров : 25,000 кадров/сек
Цветовое пространство : YUV
Субдискретизация насыщенности : 4:2:0
Битовая глубина : 8 бит
Тип развёртки : Прогрессивная
Метод сжатия : С потерями
Бит/(Пиксели*Кадры) : 0.326
Размер потока : 1,14 Гбайт (84%)
Библиотека кодирования : XviD 1.2.1 (UTC 2008-12-04)
Аудио
Идентификатор : 1
Формат : AC-3
Формат/Информация : Audio Coding 3
Расширение режима : CM (complete main)
Параметр Endianness формата : Big
Идентификатор кодека : 2000
Продолжительность : 1 ч. 9 м.
Вид битрейта : Постоянный
Битрейт : 448 Кбит/сек
Каналы : 6 каналов
Расположение каналов : Front: L C R, Side: L R, LFE
Частота : 48,0 КГц
Битовая глубина : 16 бит
Метод сжатия : С потерями
Размер потока : 224 Мбайт (16%)
Выравнивание : Разделение по промежуткам
Продолжительность промежутка : 40 мс. (1,00 видеокадр)
Время предзагрузки промежутка : 500 мс.
Download / Скачать

Хотите скачать бесплатно? Зарегистрируйтесь на сайте (ссылка на регистрацию). Pirat.ca - самый быстрый торрент трекер в рунете!

Как скачивать  ·   Что такое торрент  ·   Рейтинг и ограничения

Пост 17-Янв-2014 09:26 (спустя 6 минут)

Топик был перенесен из форума Мультфильмы (Трюм) в форум Новинки (HD|DVD|BD| TV|SAT|PDTV| - Rips)
ara1205
 

kent19859

Штурман

Пост 17-Янв-2014 12:56 (спустя 3 часа)

[Q] 

Спасибо!!! хороший мультик
[Профиль]  [ЛС] 

infiniti-r

Корсар

Пост 17-Янв-2014 14:02 (спустя 1 час 6 минут)

[Q] 

Ну наконец-то!!! Спасибо огромнейшее!!!
[Профиль]  [ЛС] 

ALEKSANDR_1968

Морской Волк

Пост 17-Янв-2014 17:33 (спустя 3 часа)

[Q] 

Спасибо!!!!Качаю и присоединяюсь к раздаче.
[Профиль]  [ЛС] 

bicuy

Лоцман

Пост 17-Янв-2014 17:48 (спустя 14 минут)

[Q] 

СПАСИБО az
[Профиль]  [ЛС] 

sergokov

Флибустьер

754

Пост 17-Янв-2014 17:53 (спустя 5 минут)

[Q] 

Хороший мультик ,но первая часть была лутше.
[Профиль]  [ЛС] 

lexmar

Корсар

Пост 17-Янв-2014 17:54 (спустя 1 минута)

[Q] 

Всем качать!!! Спасибо!!! наконец то одобрямс
[Профиль]  [ЛС] 

C0y0te

1418

Пост 17-Янв-2014 19:15 (спустя 1 час 20 минут)

[Q] 

Раздающему респект! хороший мультик
[Профиль]  [ЛС] 

Jey1980

Морской Волк

Пост 17-Янв-2014 19:18 (спустя 3 минуты)

[Q] 

СПАСИБО!!!! Дети в восторге!
[Профиль]  [ЛС] 

yulya230784

Морской Волк

927

Пост 17-Янв-2014 19:27 (спустя 8 минут)

[Q] 

спасибо огромное.
[Профиль]  [ЛС] 

dragan123

Морской Волк

Пост 17-Янв-2014 19:31 (спустя 4 минуты)

[Q] 

Спасибо!!!
[Профиль]  [ЛС] 

rekrut26

Морской Волк

67

Пост 17-Янв-2014 19:46 (спустя 15 минут)

[Q] 

Спасибо!!! ходил с ребёнком в кинотеатр,мульт мелкому понравился.Забираю в коллекцию. Лови бочку

_________________
[Профиль]  [ЛС] 

nord66

Морской Волк

Пост 17-Янв-2014 20:08 (спустя 21 минута)

[Q] 

Первая часть в разы лучше,но разок глянуть можно.Автору респект.
[Профиль]  [ЛС] 

BlackParrot

Юнга

Пост 17-Янв-2014 20:27 (спустя 19 минут)

[Q] 

СПАСИБО!!!!!![img][/img]
[Профиль]  [ЛС] 

Синефаг

Шкипер

Пост 17-Янв-2014 20:42 (спустя 14 минут)

[Q] 

Первая часть хороша была. Надеюсь, вторая не подкачает.
[Профиль]  [ЛС] 

networmcast

Пост 17-Янв-2014 21:09 (спустя 27 минут)

[Q] 

Вот и спасибочки!! )))
[Профиль]  [ЛС] 

serg_bmw

Гроза морей

650

Пост 17-Янв-2014 21:17 (спустя 7 минут)

[Q] 

Спасибо!!!

_________________
[Профиль]  [ЛС] 

spartakov

Штурман

Пост 17-Янв-2014 22:23 (спустя 1 час 6 минут)

[Q] 

Спасибо!!! Супер! класс!
[Профиль]  [ЛС] 

vik238

Корсар

Пост 17-Янв-2014 23:00 (спустя 37 минут)

[Q] 

Супер! а со звуком как?
[Профиль]  [ЛС] 

kostykua

Шкипер

Пост 18-Янв-2014 01:45 (спустя 2 часа 44 минуты)

[Q] 

Спасибо!!! Звук отличный!!!
[Профиль]  [ЛС] 

s.v.l

Корсар

Пост 18-Янв-2014 20:33 (спустя 18 часов)

[Q] 

Спасибо!!!
Лови бочку
[Профиль]  [ЛС] 

allexxxv

Морской Волк

Пост 19-Янв-2014 12:04 (спустя 15 часов)

[Q] 

СПАСИБО Лови бочку
[Профиль]  [ЛС] 

kirmiron

Морской Волк

Пост 19-Янв-2014 12:46 (спустя 42 минуты)

[Q] 

Спасибо! Лови бочку
[Профиль]  [ЛС] 

siegga

Лоцман

Пост 19-Янв-2014 12:56 (спустя 9 минут)

[Q] 

фуйня по сравнению с богатырями.
[Профиль]  [ЛС] 

lextoys

Штурман

Пост 19-Янв-2014 13:49 (спустя 53 минуты)

[Q] 

Жду таких же эмоций как и от первой части !!! Супер!
[Профиль]  [ЛС] 

westrise

Морской Волк

Пост 19-Янв-2014 16:40 (спустя 2 часа 51 минута)

[Q] 

Забавный мульт,не шедевр,но время не жалко потраченного на просмотр)
[Профиль]  [ЛС] 

douglasd

Штурман

Пост 19-Янв-2014 17:26 (спустя 45 минут)

[Q] 

Спасибо!!! супер!!!!
[Профиль]  [ЛС] 

fishman

Корсар

Пост 19-Янв-2014 18:24 (спустя 58 минут)

[Q] 

Заценим всей семьёй.
Раздающему респект! Лови бочку

_________________
|___|___|___|___|___|___|___|__|__
__|__|__|_Биться головой_|___|___|
|___|___|___|__сюда!!___|___|__|__
__|___|___|___|___|___|___|__|__
[Профиль]  [ЛС] 

ku6opr

Морской Волк

184

Пост 19-Янв-2014 18:25 (спустя 50 секунд)

[Q] 

Умеют жечь... редко, что очень жаль, но умеют!!!!
Спасибо!!!

_________________
[Профиль]  [ЛС] 
Показать сообщения:    
Ответить на тему

Текущее время: Сегодня 18:06

Часовой пояс: GMT + 4



Вы не можете начинать темы
Вы не можете отвечать на сообщения
Вы не можете редактировать свои сообщения
Вы не можете удалять свои сообщения
Вы не можете голосовать в опросах
Вы не можете прикреплять файлы к сообщениям
Вы не можете скачивать файлы

▼ Вниз