ML
     
  Уважаемый Гость!
Вы можете поддержать проект и зарегистрироваться у наших партнеров - онлайн-стратегия MyLands. При регистрации в игре Вы получите код, который сможете активировать после регистрации на pirat.ca и получить 1000 дублонов.

Ваш код:
0ea1bf889af42fca5f67d0a391efb3400850ad7c
 
     

Похождения бравого солдата Швейка / The Good Soldier Shweik (Ринат Газизов / Rinat Gazizov, Манук Депоян / Manuk Depoyan) [2011 г., мультфильм, комедия, семейный, военный, DVDRip]

Ответить на тему
 
Автор
Сообщение

Пост 03-Мар-2014 22:46

[Q] 

kugesan

-Похождения бравого солдата Швейка
The Good Soldier Shweik

«One Man against a World War...»
-- Производство: Россия, Украина
Режиссер: Ринат Газизов / Rinat Gazizov, Манук Депоян / Manuk Depoyan
Жанр: мультфильм, комедия, семейный, военный
Год выпуска: 2011 г.
Продолжительность: 01:13:46
Мировая премьера: 15 ноября 2012, «Панорама Кино»
Российская премьера: 17 июня 2013, «Новый Диск», ...
Перевод: Не требуется
Роли озвучивали: Юрий Стоянов (Швейк), Юрий Деркач (рассказчик), Гоша Куценко (Паливец), Александр Новиков (Бретшнейдер), Владислав Копп (поручик Дуб), Павел Сметанкин (поручик Лукаш), Денис Некрасов (фельдкурат Отто Кац)-Описание: По мотивам юмористического романа Ярослава Гашека.
Йозефа Швейка, чешского торговца собаками, которого уже дисквалифицировали из армии, как форменного идиота, снова призывают на службу в качестве пушечного мяса во время Первой Мировой войны. Ему докучали бюрократы, полицейские, доктора и духовенство, его «продавали» от одного офицера другому, но добродушный, болтливый и бесхитростный солдат Швейк все же неохотно приближается к линии фронта и, очевидно, к верной смерти.-Сэмпл IMDB КиноПоиск
Качество видео: DVDRip
Контейнер: AVI
Видео кодек: XviD
Аудио кодек: AC3
Видео: MPEG-4 Visual at 1995 Кбит/сек: 720 x 384 (1.875) at 25.000 fps: 0.29 Бит/Пиксели
Аудио: AC-3 at 224 Кбит/сек: 2 канала, 48,0 КГц
Cубтитры: отсутствуют
Код:
Общее
Полное имя                               : E:\РАЗДАЧА\Films\The_Goоd_Sоldier_Shwеik_(2011).avi
Формат                                   : AVI
Формат/Информация                        : Audio Video Interleave
Размер файла                             : 1,10 Гбайт
Продолжительность                        : 1 ч. 10 м.
Общий поток                              : 2229 Кбит/сек
Программа кодирования                    : VirtualDubMod 1.5.10.2 (build 2540/release)
Библиотека кодирования                   : VirtualDubMod build 2540/release
Видео
Идентификатор                            : 0
Формат                                   : MPEG-4 Visual
Профиль формата                          : Advanced [email protected]
Параметр BVOP формата                    : 2
Параметр QPel формата                    : Нет
Параметр GMC формата                     : Без точки перехода
Параметр матрицы формата                 : Default (H.263)
Идентификатор кодека                     : XVID
Идентификатор кодека/Подсказка           : XviD
Продолжительность                        : 1 ч. 10 м.
Битрейт                                  : 1995 Кбит/сек
Ширина                                   : 720 пикселей
Высота                                   : 384 пикселя
Соотношение сторон                       : 1,85:1
Частота кадров                           : 25,000 кадров/сек
Цветовое пространство                    : YUV
Субдискретизация насыщенности            : 4:2:0
Битовая глубина                          : 8 бит
Тип развёртки                            : Прогрессивная
Метод сжатия                             : С потерями
Бит/(Пиксели*Кадры)                      : 0.289
Размер потока                            : 1004 Мбайт (90%)
Библиотека кодирования                   : XviD 1.1.2 (UTC 2006-11-01)
Аудио
Идентификатор                            : 1
Формат                                   : AC-3
Формат/Информация                        : Audio Coding 3
Расширение режима                        : CM (complete main)
Параметр Endianness формата              : Big
Идентификатор кодека                     : 2000
Продолжительность                        : 1 ч. 10 м.
Вид битрейта                             : Постоянный
Битрейт                                  : 224 Кбит/сек
Каналы                                   : 2 канала
Расположение каналов                     : Front: L R
Частота                                  : 48,0 КГц
Битовая глубина                          : 16 бит
Метод сжатия                             : С потерями
Размер потока                            : 113 Мбайт (10%)
Выравнивание                             : Разделение по промежуткам
Продолжительность промежутка             : 40  мс. (1,00 видеокадр)
Время предзагрузки промежутка            : 500  мс.
Download / Скачать

Хотите скачать бесплатно? Зарегистрируйтесь на сайте (ссылка на регистрацию). Pirat.ca - самый быстрый торрент трекер в рунете!

Как скачивать  ·   Что такое торрент  ·   Рейтинг и ограничения

Пост 04-Мар-2014 10:36 (спустя 11 часов)

Топик был перенесен из форума Мультфильмы (Трюм) в форум Отечественные полнометражные мультфильмы
erchine
 

DAEDMAN

Флибустьер

Пост 04-Мар-2014 13:11 (спустя 14 часов)

[Q] 

Заценим!!! aa
[Профиль]  [ЛС] 

адлер27

Корсар

Пост 04-Мар-2014 14:14 (спустя 1 час 3 минуты)

[Q] 

Куцый и тут влез.

_________________
[Профиль]  [ЛС] 

kmv01

Гроза морей

Пост 04-Мар-2014 19:56 (спустя 5 часов)

[Q] 

Спасибо! !COOL!
[Профиль]  [ЛС] 

olipov

Легенда

Пост 04-Мар-2014 23:42 (спустя 3 часа)

[Q] 

спасибо Автору респект!!!
[Профиль]  [ЛС] 

Феонолини

Шкипер

Пост 18-Апр-2014 17:56 (спустя 1 месяц 13 дней)

[Q] 

Неплохая экранизация романа Ярослава Гашека. Но в нем были не только допущены ошибки в виде несоответствия экранизации и романа, но и логические. Например, Швейка отправляют на поиск квартир и называют его ординарцем. Но так и непонятно,когда он им стал, так как по сюжета мультфильма он денщик поручика Лукаса. Также странно наблюдать целый полк без командира-среди офицеров только поручик Лукас и поручик Дуб,а еще студент-полу-офицер.

_________________
Где есть свет, всегда есть тень. Под светом счастья... Всегда есть тень отчаяния ...
Хун Мин
[Профиль]  [ЛС] 
Показать сообщения:    
Ответить на тему

Текущее время: Сегодня 00:32

Часовой пояс: GMT + 4



Вы не можете начинать темы
Вы не можете отвечать на сообщения
Вы не можете редактировать свои сообщения
Вы не можете удалять свои сообщения
Вы не можете голосовать в опросах
Вы не можете прикреплять файлы к сообщениям
Вы не можете скачивать файлы

▼ Вниз