ML
     
  Уважаемый Гость!
Вы можете поддержать проект и зарегистрироваться у наших партнеров - онлайн-стратегия MyLands. При регистрации в игре Вы получите код, который сможете активировать после регистрации на pirat.ca и получить 1000 дублонов.

Ваш код:
b70663c760e7cd2521b8e123786cdd788200e3bd
 
     

Белка и Стрелка: Лунные приключения (Александр Храмцов, Инна Евланникова, Вадим Сотсков) [2013 г., мультфильм, комедия, приключения, семейный, HDRip] (Лицензия) «CD Land»

Ответить на тему
 
Автор
Сообщение

Пост 29-Мар-2014 03:31

[Q] 

Resident

-Белка и Стрелка: Лунные приключения-- Производство: Россия КиноАтис
Год выпуска: 2013 г.
Жанр: мультфильм, комедия, приключения, семейный
Продолжительность: 01:12:03
Российская премьера: 6 февраля 2014, «Каропрокат»
Дата выхода DVD: 1 апреля 2014, «CD Land», ...
Дата выхода Blu-Ray: 1 апреля 2014, «CD Land», ...
Перевод: Не требуется (Лицензия)
Режиссер: Александр Храмцов, Инна Евланникова, Вадим Сотсков-В ролях: Нонна Гришаева, Марьяна Спивак, Евгений Миронов, Тимур Родригез, Сергей Гармаш, Лев Аксельрод, Илья Храмцов, Стася Кудякова, Алексей Колган, Роман Квашнин-Описание: На Земле начали происходить странные и загадочные явления, несущие угрозу для планеты. Их след ведет в космос, на темную сторону Луны. Раскрыть тайну века поручили отряду Казбека. Белка, Стрелка и вся команда веселых и отважных героев отправляются на Луну, чтобы выполнить опасную миссию. Страсть к приключениям, искрометный юмор и великий дух космического братства поддержат в минуту великой опасности и помогут раскрыть всю правду о Луне и ее обитателях.-
Качество видео: HDRip
Контейнер: AVI
Видео кодек: XviD
Аудио кодек: AC3
Видео: 720x400 (1.80:1), 25 fps, XviD build 50 ~2259 kbps avg, 0.31 bit/pixel
Аудио: 48 kHz, AC3 Dolby Digital, 3/2 (L,C,R,l,r) + LFE ch, ~448 kbps (Оригинальное)
Cубтитры: отсутствуют
General
Complete name : W:\Belka.i.Strelka.2014.O.HDRip.1400MB.avi
Format : AVI
Format/Info : Audio Video Interleave
File size : 1.37 GiB
Duration : 1h 12mn
Overall bit rate : 2 716 Kbps
Writing application : VirtualDubMod 1.5.10.2 (build 2540/release)
Writing library : VirtualDubMod build 2540/release
Video
ID : 0
Format : MPEG-4 Visual
Format profile : Advanced [email protected]
Format settings, BVOP : Yes
Format settings, QPel : No
Format settings, GMC : No warppoints
Format settings, Matrix : Custom
Codec ID : XVID
Codec ID/Hint : XviD
Duration : 1h 12mn
Bit rate : 2 259 Kbps
Width : 720 pixels
Height : 400 pixels
Display aspect ratio : 16:9
Frame rate : 25.000 fps
Color space : YUV
Chroma subsampling : 4:2:0
Bit depth : 8 bits
Scan type : Progressive
Bits/(Pixel*Frame) : 0.314
Stream size : 1.14 GiB (83%)
Writing library : XviD 1.2.1 (UTC 2008-12-04)
Audio
ID : 1
Format : AC-3
Format/Info : Audio Coding 3
Mode extension : CM (complete main)
Codec ID : 2000
Duration : 1h 12mn
Bit rate mode : Constant
Bit rate : 448 Kbps
Channel(s) : 6 channels
Channel positions : Front: L C R, Side: L R, LFE
Sampling rate : 48.0 KHz
Bit depth : 16 bits
Stream size : 231 MiB (16%)
Alignment : Split accross interleaves
Interleave, duration : 40 ms (1.00 video frame)
Interleave, preload duration : 500 ms
Download / Скачать

Хотите скачать бесплатно? Зарегистрируйтесь на сайте (ссылка на регистрацию). Pirat.ca - самый быстрый торрент трекер в рунете!

Как скачивать  ·   Что такое торрент  ·   Рейтинг и ограничения

Пост 29-Мар-2014 10:45 (спустя 7 часов)

Топик был перенесен из форума Зарубежное Кино (Трюм) в форум Новинки (HD|DVD|BD| TV|SAT|PDTV| - Rips)
ara1205
 

Dypa4ek

Морской Волк

Пост 29-Мар-2014 13:02 (спустя 9 часов)

[Q] 

Спасибо!!!  Лови бочку

_________________
[Профиль]  [ЛС] 

sergena

Морской Волк

Пост 29-Мар-2014 13:19 (спустя 16 минут)

[Q] 

большое спасибо
[Профиль]  [ЛС] 

h5n1

Гроза морей

483

Пост 30-Мар-2014 06:20 (спустя 17 часов)

[Q] 

чот все посмотрели, а я еще нет))) Лови бочку

_________________
«Мы находимся здесь, чтобы внести свой вклад в этот мир. Иначе зачем мы здесь?» S.Jobs
[Профиль]  [ЛС] 

ZERZIA

Штурман

Пост 01-Апр-2014 20:36 (спустя 2 дня 14 часов)

[Q] 

Как мульт, народ?
[Профиль]  [ЛС] 

dimultik

Штурман

Пост 03-Апр-2014 19:26 (спустя 1 день 22 часа)

[Q] 

порадовал))ребенок тоже смотрел
[Профиль]  [ЛС] 

Strix

Флибустьер

Пост 15-Фев-2015 10:04 (спустя 10 месяцев 11 дней)

[Q] 

Спасибо! Супер!
[Профиль]  [ЛС] 
Показать сообщения:    
Ответить на тему

Текущее время: Сегодня 00:23

Часовой пояс: GMT + 4



Вы не можете начинать темы
Вы не можете отвечать на сообщения
Вы не можете редактировать свои сообщения
Вы не можете удалять свои сообщения
Вы не можете голосовать в опросах
Вы не можете прикреплять файлы к сообщениям
Вы не можете скачивать файлы

▼ Вниз