ML
     
  Уважаемый Гость!
Вы можете поддержать проект и зарегистрироваться у наших партнеров - онлайн-стратегия MyLands. При регистрации в игре Вы получите код, который сможете активировать после регистрации на pirat.ca и получить 1000 дублонов.

Ваш код:
2932e5898d0a27592397f70b82a5834d1e70ea19
 
     

Иван Царевич и Серый Волк 2 (Владимир Торопчин) [2013 г., мультфильм, приключения, семейный, фэнтези, BDRip, 720p]

Ответить на тему
 
Автор
Сообщение

Пост 09-Апр-2014 22:25

[Q] 

LPPI

-Иван Царевич и Серый Волк 2-«Любимые герои, новые приключения»- Производство: Россия / Кинокомпания CTB, Анимационная студия Мельница
Жанр: мультфильм, приключения, семейный, фэнтези
Год выпуска: 2013 г.
Продолжительность: 01:12:38
Мировая премьера: 26 декабря 2013
Российская премьера: 26 декабря 2013, «Наше Кино»
Перевод: Не требуется-Режиссер: Владимир Торопчин
Роли озвучивали: Никита Ефремов, Татьяна Бунина, Иван Охлобыстин, Михаил Боярский, Ирина Рахманова, Александр Боярский-Описание:-В Тридевятом царстве, где живут наши герои — тишь, да благодать. Иван женился на Василисе, и «жили они долго и счастливо», да не тут-то было. Иван целыми днями пропадает с Волком на службе — укрепляет рубежи и оборонную мощь, мечтает перевести стрелки часов на семь часов назад, чтобы меньше спать, и больше работать. А Василисе — скучно, как всем девушкам, ей хочется романтики, ну, такой, как в сказках. И тогда она решает организовать свое похищение… Однако, когда такое бывало, что в сказках все получалось так, как задумывалось?-Сэмпл КиноПоиск-Качество видео: BDRip
Контейнер: MKV
Стандарт разрешения: 720p
Видео кодек: AVC MPEG-4 (H 264)
Аудио кодек: AC3
Видео: 1280x720 (16:9), 5 000 Kbps, 24.000 fps, 0.226 bit/pixel
Аудио: AC3, 640 Kbps, 6 ch, 48.0 KHz
Cубтитры: отсутствуют
Код:
General
Unique ID                                : 253139604286278721502929445759910337776 (0xBE70EA16272B1015BCAA8095CA2ADCF0)
Complete name                            : C:\Users\Admin\Desktop\Ivan.Tsarevich.i.Seryy.Volk.2.mkv
Format                                   : Matroska
Format version                           : Version 2
File size                                : 2.86 GiB
Duration                                 : 1h 12mn
Overall bit rate                         : 5 641 Kbps
Movie name                               : Rip by LPPI
Encoded date                             : UTC 2014-04-09 17:27:00
Writing application                      : mkvmerge v4.7.0 ('Just Like You Imagined') сборка от Apr 21 2011 01:13:14
Writing library                          : libebml v1.2.0 + libmatroska v1.1.0
Video
ID                                       : 1
Format                                   : AVC
Format/Info                              : Advanced Video Codec
Format profile                           : [email protected]
Format settings, CABAC                   : Yes
Format settings, ReFrames                : 7 frames
Codec ID                                 : V_MPEG4/ISO/AVC
Duration                                 : 1h 12mn
Bit rate                                 : 5 000 Kbps
Width                                    : 1 280 pixels
Height                                   : 720 pixels
Display aspect ratio                     : 16:9
Frame rate mode                          : Constant
Frame rate                               : 24.000 fps
Color space                              : YUV
Chroma subsampling                       : 4:2:0
Bit depth                                : 8 bits
Scan type                                : Progressive
Bits/(Pixel*Frame)                       : 0.226
Stream size                              : 2.48 GiB (87%)
Writing library                          : x264 core 130 r2273 b3065e6
Encoding settings                        : cabac=1 / ref=7 / deblock=1:-1:-1 / analyse=0x3:0x133 / me=umh / subme=11 / psy=1 / psy_rd=1.00:0.15 / mixed_ref=0 / me_range=48 / chroma_me=1 / trellis=2 / 8x8dct=1 / cqm=0 / deadzone=21,11 / fast_pskip=0 / chroma_qp_offset=-3 / threads=12 / lookahead_threads=2 / sliced_threads=0 / nr=0 / decimate=1 / interlaced=0 / bluray_compat=0 / constrained_intra=0 / bframes=8 / b_pyramid=2 / b_adapt=2 / b_bias=0 / direct=3 / weightb=1 / open_gop=0 / weightp=2 / keyint=250 / keyint_min=23 / scenecut=40 / intra_refresh=0 / rc_lookahead=50 / rc=2pass / mbtree=1 / bitrate=5000 / ratetol=1.0 / qcomp=0.60 / qpmin=0 / qpmax=69 / qpstep=4 / cplxblur=20.0 / qblur=0.5 / ip_ratio=1.40 / aq=1:1.00
Language                                 : Russian
Default                                  : Yes
Forced                                   : No
Audio
ID                                       : 2
Format                                   : AC-3
Format/Info                              : Audio Coding 3
Mode extension                           : CM (complete main)
Format settings, Endianness              : Big
Codec ID                                 : A_AC3
Duration                                 : 1h 12mn
Bit rate mode                            : Constant
Bit rate                                 : 640 Kbps
Channel(s)                               : 6 channels
Channel positions                        : Front: L C R, Side: L R, LFE
Sampling rate                            : 48.0 KHz
Bit depth                                : 16 bits
Compression mode                         : Lossy
Stream size                              : 332 MiB (11%)
Language                                 : Russian
Default                                  : Yes
Forced                                   : Yes
x264 [info]: frame I:1234  Avg QP: 4.08  size:270423
x264 [info]: frame P:29769 Avg QP: 8.00 size: 53949
x264 [info]: frame B:73583 Avg QP:12.32 size: 10359
x264 [info]: consecutive B-frames: 5.8% 6.4% 13.9% 40.7% 15.2% 12.6% 2.0% 1.8% 1.6%
x264 [info]: mb I I16..4: 25.7% 0.0% 74.3%
x264 [info]: mb P I16..4: 16.1% 0.0% 0.0% P16..4: 49.3% 0.0% 0.0% 0.0% 0.0% skip:34.7%
x264 [info]: mb B I16..4: 2.2% 0.0% 0.0% B16..8: 15.8% 0.0% 0.0% direct: 8.4% skip:73.7% L0:39.4% L1:42.6% BI:18.0%
x264 [info]: final ratefactor: 10.94
x264 [info]: direct mvs spatial:99.8% temporal:0.2%
x264 [info]: coded y,uvDC,uvAC intra: 61.7% 61.7% 56.4% inter: 14.1% 14.9% 10.1%
x264 [info]: i16 v,h,dc,p: 46% 31% 17% 6%
x264 [info]: i4 v,h,dc,ddl,ddr,vr,hd,vl,hu: 23% 25% 11% 6% 7% 7% 7% 6% 8%
x264 [info]: i8c dc,h,v,p: 53% 28% 15% 5%
x264 [info]: Weighted P-Frames: Y:1.1% UV:0.8%
x264 [info]: kb/s:4960.30
Download / Скачать

Хотите скачать бесплатно? Зарегистрируйтесь на сайте (ссылка на регистрацию). Pirat.ca - самый быстрый торрент трекер в рунете!

Как скачивать  ·   Что такое торрент  ·   Рейтинг и ограничения

Показать сообщения:    
Ответить на тему

Текущее время: Сегодня 08:03

Часовой пояс: GMT + 4



Вы не можете начинать темы
Вы не можете отвечать на сообщения
Вы не можете редактировать свои сообщения
Вы не можете удалять свои сообщения
Вы не можете голосовать в опросах
Вы не можете прикреплять файлы к сообщениям
Вы не можете скачивать файлы

▼ Вниз