ML
     
  Уважаемый Гость!
Вы можете поддержать проект и зарегистрироваться у наших партнеров - онлайн-стратегия MyLands. При регистрации в игре Вы получите код, который сможете активировать после регистрации на pirat.ca и получить 1000 дублонов.

Ваш код:
cc3be08b7507661c03e0a2f582d0da3a659ea55a
 
     

Иван Царевич и Серый Волк (Владимир Торопчин) [2011 г., мультфильм, семейный, DVDRip-AVC][internal release]

Ответить на тему
 
Автор
Сообщение

Пост 14-Янв-2012 01:51

[Q] 

zyyx

--Иван Царевич и Серый Волк-- Год выпуска: 2011
Мировая премьера: 29 декабря 2011
Российская премьера: 29 декабря 2011, «Наше Кино»
Дата выхода DVD: 24 января 2012, «Lizard Cinema Trade»
Производство: Россия
Жанр: мультфильм, семейный
Продолжительность: 01:22:30
Перевод: Не требуется
Режиссер: Владимир Торопчин
В ролях: Никита Ефремов, Иван Охлобыстин, Артур Смольянинов, Лия Ахеджакова, Кристина Асмус, Виктор Сухоруков, Сергей Гармаш, Михаил Боярский...
Описание: Увлекательная история от создателей богатырской трилогии, в которой героев русских народных сказок ждут новые приключения, опасности и забавные ситуации.
Источник/Качество: DVDRip-AVC | Сэмпл
Формат: MKV
Видео кодек: H.26x
Аудио кодек: AC3
Видео: [email protected], 25.00fps, 2151 Kbps
Аудио: 48.0 KHz, 6 ch, 384 Kbps
General
Complete name : F:\zyyx\Ivan.carevich.i.seriy.volk.2011.DVD-AVC.zyyx.mkv
Format : Matroska
File size : 1.46 GiB
Duration : 1h 22mn
Overall bit rate : 2 535 Kbps
Movie name : pirat.ca
Encoded date : UTC 2012-01-13 21:49:19
Writing application : mkvmerge v4.6.0 ('Still Crazy After All These Years') сборка от Mar 13 2011 18:33:29
Writing library : libebml v1.2.0 + libmatroska v1.1.0
Video
ID : 1
Format : AVC
Format/Info : Advanced Video Codec
Format profile : [email protected]
Format settings, CABAC : Yes
Format settings, ReFrames : 16 frames
Muxing mode : Container [email protected]
Codec ID : V_MPEG4/ISO/AVC
Duration : 1h 22mn
Bit rate : 2 101 Kbps
Nominal bit rate : 2 151 Kbps
Width : 720 pixels
Height : 576 pixels
Display aspect ratio : 16:9
Frame rate : 25.000 fps
Standard : PAL
Resolution : 24 bits
Colorimetry : 4:2:0
Scan type : Progressive
Bits/(Pixel*Frame) : 0.203
Stream size : 1.21 GiB (83%)
Writing library : x264 core 114 r1924 08d04a4
Encoding settings : cabac=1 / ref=16 / deblock=1:-2:-1 / analyse=0x3:0x133 / me=umh / subme=9 / psy=1 / psy_rd=1.00:0.20 / mixed_ref=1 / me_range=32 / chroma_me=1 / trellis=2 / 8x8dct=1 / cqm=0 / deadzone=21,11 / fast_pskip=0 / chroma_qp_offset=-3 / threads=6 / sliced_threads=0 / nr=0 / decimate=1 / interlaced=0 / constrained_intra=0 / bframes=8 / b_pyramid=2 / b_adapt=2 / b_bias=0 / direct=3 / weightb=1 / open_gop=0 / weightp=2 / keyint=250 / keyint_min=25 / scenecut=40 / intra_refresh=0 / rc_lookahead=60 / rc=2pass / mbtree=1 / bitrate=2151 / ratetol=1.0 / qcomp=0.60 / qpmin=0 / qpmax=69 / qpstep=4 / cplxblur=20.0 / qblur=0.5 / ip_ratio=1.40 / aq=1:1.00
Audio
ID : 2
Format : AC-3
Format/Info : Audio Coding 3
Codec ID : A_AC3
Duration : 1h 22mn
Bit rate mode : Constant
Bit rate : 384 Kbps
Channel(s) : 6 channels
Channel positions : Front: L C R, Surround: L R, LFE
Sampling rate : 48.0 KHz
Stream size : 227 MiB (15%)
Download / Скачать

Хотите скачать бесплатно? Зарегистрируйтесь на сайте (ссылка на регистрацию). Pirat.ca - самый быстрый торрент трекер в рунете!

Как скачивать  ·   Что такое торрент  ·   Рейтинг и ограничения



Последний раз редактировалось: zyyx (2012-01-14 20:04), всего редактировалось 1 раз

Пост 14-Янв-2012 10:17 (спустя 8 часов)

Топик был перенесен из форума Мультипликация в форум Новинки (HD|DVD|BD|TV|SAT|PDTV| - Rips)

CaptRom
 

egor126

Гроза морей

Пост 14-Янв-2012 11:00 (спустя 9 часов)

[Q] 

Спасибо. Сравним.
[Профиль]  [ЛС] 

ksg111ban

Гроза морей

Пост 14-Янв-2012 13:28 (спустя 2 часа 27 минут)

[Q] 

Хороший мультик, с подтекстом на нашу реальность.

_________________
[Профиль]  [ЛС] 

MaXoR

Флибустьер

1475

Пост 14-Янв-2012 13:41 (спустя 13 минут)

[Q] 

Спасибо большое!Сестренке скачаю.

_________________
Живы будем - не помрем!
[Профиль]  [ЛС] 

wagon

Морской Волк

Пост 14-Янв-2012 13:51 (спустя 9 минут)

[Q] 

Спасибо!!!
[Профиль]  [ЛС] 

Smulya

Морской Волк

81

Пост 14-Янв-2012 18:34 (спустя 4 часа)

[Q] 

Спасибо! Заценим!

_________________
[Профиль]  [ЛС] 

Alexe10

Гроза морей

36

Пост 14-Янв-2012 21:10 (спустя 2 часа 35 минут)

[Q] 

Смотрели в кино! Дети в восторге!!!
[Профиль]  [ЛС] 

Suncat

Корсар

Пост 14-Янв-2012 23:57 (спустя 2 часа 46 минут)

[Q] 

Мне понравилось. Хороший, веселый мультик. Рекомендую.
[Профиль]  [ЛС] 

EvilPuzatik

Корсар

Пост 15-Янв-2012 02:32 (спустя 2 часа 35 минут)

[Q] 

мне тоже понравился) спасибо!

_________________
[Профиль]  [ЛС] 

alex 86

Морской Волк

Пост 15-Янв-2012 11:09 (спустя 8 часов)

[Q] 

Люди через флешку на плазме рип читается?
[Профиль]  [ЛС] 

Колямба

Морской Волк

Пост 16-Янв-2012 01:01 (спустя 13 часов)

[Q] 

поржал
[Профиль]  [ЛС] 

S_N_A_K_E

Флибустьер

Пост 16-Янв-2012 04:37 (спустя 3 часа)

[Q] 

Люди через флешку на плазме рип читается?
да должен по идее
[Профиль]  [ЛС] 

СерВолк

Корсар

Пост 18-Янв-2012 13:08 (спустя 2 дня 8 часов)

[Q] 

не детцкий?
[Профиль]  [ЛС] 

Nushka

Морской Волк

Пост 18-Янв-2012 23:59 (спустя 10 часов)

[Q] 

Да, восторг от фильма обеспечен!!!
Автору спасибо!
[Профиль]  [ЛС] 

Nushka

Морской Волк

Пост 19-Янв-2012 00:00 (спустя 51 секунда)

[Q] 

не детцкий?
Не детский!
[Профиль]  [ЛС] 

Alex_cross

42

Пост 19-Янв-2012 02:55 (спустя 2 часа 54 минуты)

[Q] 

спасибо

_________________
За Веру, Царя и Отечество!
[Профиль]  [ЛС] 

got70

Легенда

752

Пост 20-Янв-2012 00:22 (спустя 21 час)

[Q] 

Сипосибо

_________________
Добро непременно победит зло!Непременно...Затем поставит на колени,и зверски УБЬЁТ!
[Профиль]  [ЛС] 

Inspektor

Корсар

4

Пост 25-Янв-2012 00:00 (спустя 4 дня)

[Q] 

Смотрел. Классный мульт. Достаточно быстро происходят события, не затянут, местами забавно даже смешно. Вобщем хороший мульт сварганили.

_________________
[Профиль]  [ЛС] 

xxx4ervxxx

Морской Волк

Пост 26-Янв-2012 07:51 (спустя 1 день 7 часов)

[Q] 

Спасибо))
[Профиль]  [ЛС] 

KOS1612

Корсар

Пост 28-Янв-2012 20:41 (спустя 2 дня 12 часов)

[Q] 

Спасибо
[Профиль]  [ЛС] 

U-858

Флибустьер

Пост 28-Янв-2012 23:36 (спустя 2 часа 54 минуты)

[Q] 

КЛАССНЫЙ МУЛЬТ.
[Профиль]  [ЛС] 

alextaganovich

Морской Волк

Пост 31-Янв-2012 19:10 (спустя 2 дня 19 часов)

[Q] 

Спасибо! Ребенку скачаю!
[Профиль]  [ЛС] 

S_N_A_K_E

Флибустьер

Пост 01-Фев-2012 10:04 (спустя 14 часов)

[Q] 

прикольный мульт) спасибо
[Профиль]  [ЛС] 

катюшка

Пост 18-Авг-2012 21:08 (спустя 6 месяцев 17 дней)

[Q] 

сильнейший мультфильм!.
[Профиль]  [ЛС] 
Показать сообщения:    
Ответить на тему

Текущее время: Сегодня 05:08

Часовой пояс: GMT + 4



Вы не можете начинать темы
Вы не можете отвечать на сообщения
Вы не можете редактировать свои сообщения
Вы не можете удалять свои сообщения
Вы не можете голосовать в опросах
Вы не можете прикреплять файлы к сообщениям
Вы не можете скачивать файлы

▼ Вниз