ML
     
  Уважаемый Гость!
Вы можете поддержать проект и зарегистрироваться у наших партнеров - онлайн-стратегия MyLands. При регистрации в игре Вы получите код, который сможете активировать после регистрации на pirat.ca и получить 1000 дублонов.

Ваш код:
8b752b428cf60a012c159dcae592cd1392170115
 
     

Иван Царевич и Серый Волк (Владимир Торопчин) [2011 г., Мультфильм, семейный, DVDRip-AVC] (Original) [internal release]

Страницы :  1, 2  След.

Ответить на тему
 
Автор
Сообщение

Пост 14-Янв-2012 13:39

[Q] 

Green

Шкипер

---Иван Царевич и Серый Волк--- Год выпуска: 2011
Мировая премьера: 29 декабря 2011
Российская премьера: 29 декабря 2011, «Наше Кино»
Дата выхода DVD: 24 января 2012, «Lizard Cinema Trade»
Производство: Россия
Жанр: Мультфильм, семейный
Продолжительность: 01:22:30
Перевод: Оригинальное
Режиссер: Владимир Торопчин
В ролях: Никита Ефремов, Иван Охлобыстин, Артур Смольянинов, Лия Ахеджакова, Кристина Асмус, Виктор Сухоруков, Сергей Гармаш, Михаил Боярский...
Описание: Увлекательная история от создателей богатырской трилогии, в которой героев русских народных сказок ждут новые приключения, опасности и забавные ситуации.
Источник/Качество: DVDRip-AVC | Сэмпл | КиноПоиск
Формат: MKV
Видео кодек: H.26x
Аудио кодек: AC3
Видео: [email protected], 25.000 fps, 2 005 Kbps
Аудио: 6 channels, 48.0 KHz, 384 Kbps
General
Complete name : D:\Ivan.carevi4.i.serii.volk.2011.D.DVDRip-AVC.Green.mkv
Format : Matroska
File size : 1.38 GiB
Duration : 1h 22mn
Overall bit rate : 2 391 Kbps
Encoded date : UTC 2012-01-14 08:47:21
Writing application : mkvmerge v4.5.0 ('Speed of Light') сборка от Feb 1 2011 02:10:32
Writing library : libebml v1.2.0 + libmatroska v1.1.0
Video
ID : 1
Format : AVC
Format/Info : Advanced Video Codec
Format profile : [email protected]
Format settings, CABAC : Yes
Format settings, ReFrames : 8 frames
Codec ID : V_MPEG4/ISO/AVC
Duration : 1h 22mn
Bit rate : 2 005 Kbps
Width : 720 pixels
Height : 576 pixels
Display aspect ratio : 16:9
Original display aspect ratio : 16:9
Frame rate : 25.000 fps
Standard : PAL
Color space : YUV
Chroma subsampling : 4:2:0
Bit depth : 8 bits
Scan type : Progressive
Bits/(Pixel*Frame) : 0.193
Stream size : 1.13 GiB (82%)
Writing library : x264 core 113 r1884 7313bb5
Audio
ID : 2
Format : AC-3
Format/Info : Audio Coding 3
Mode extension : CM (complete main)
Codec ID : A_AC3
Duration : 1h 22mn
Bit rate mode : Constant
Bit rate : 384 Kbps
Channel(s) : 6 channels
Channel positions : Front: L C R, Side: L R, LFE
Sampling rate : 48.0 KHz
Bit depth : 16 bits
Stream size : 227 MiB (16%)
Download / Скачать

Хотите скачать бесплатно? Зарегистрируйтесь на сайте (ссылка на регистрацию). Pirat.ca - самый быстрый торрент трекер в рунете!

Как скачивать  ·   Что такое торрент  ·   Рейтинг и ограничения

wagon

Морской Волк

Пост 14-Янв-2012 13:49 (спустя 10 минут)

[Q] 

Cупер!!!!
[Профиль]  [ЛС] 

Пост 14-Янв-2012 14:12 (спустя 22 минуты)

Топик был перенесен из форума Мультипликация в форум Новинки (HD|DVD|BD|TV|SAT|PDTV| - Rips)

Sirota
 

Алексей63

Шкипер

Пост 14-Янв-2012 14:49 (спустя 59 минут)

[Q] 

Спасибо!

_________________
[Профиль]  [ЛС] 

rrtryytyew4

Морской Волк

32

Пост 14-Янв-2012 16:06 (спустя 1 час 17 минут)

[Q] 

Хороший мульт.
[Профиль]  [ЛС] 

Alexe10

Гроза морей

36

Пост 14-Янв-2012 20:52 (спустя 4 часа)

[Q] 

Очередной мультфильм "Мельницы", как всегда бесподобен!
[Профиль]  [ЛС] 

Suncat

Корсар

Пост 14-Янв-2012 23:54 (спустя 3 часа)

[Q] 

Мне понравилось. Хороший, веселый мультик. Рекомендую!
[Профиль]  [ЛС] 

dimonpa

Гроза морей

Пост 15-Янв-2012 05:39 (спустя 5 часов)

[Q] 

Спасибо !!!
[Профиль]  [ЛС] 

Pesok

Гроза морей

Пост 15-Янв-2012 10:35 (спустя 4 часа)

[Q] 

спасибо, мелкие будут рады до уписок:)

_________________
[Профиль]  [ЛС] 

Колямба

Морской Волк

Пост 16-Янв-2012 01:02 (спустя 14 часов)

[Q] 

поржал,прикольно
[Профиль]  [ЛС] 

alex 86

Морской Волк

Пост 16-Янв-2012 15:14 (спустя 14 часов)

[Q] 

Этот рип хоть плазма читает?А то скачал прошлый рип и он кривой!
[Профиль]  [ЛС] 

K-0-t

Морской Волк

544

Пост 16-Янв-2012 15:28 (спустя 13 минут)

[Q] 

Спасибо. Ща заценю.
[Профиль]  [ЛС] 

MakAVP

Морской Волк

18

Пост 16-Янв-2012 17:05 (спустя 1 час 37 минут)

[Q] 

Надо глянуть.Спасибо за качество!

_________________

[Профиль]  [ЛС] 

Barskavkaz

Корсар

Пост 17-Янв-2012 23:09 (спустя 1 день 6 часов)

[Q] 

респект раздающему!

_________________
Д.Тк
[Профиль]  [ЛС] 

Серёга

Штурман

Пост 18-Янв-2012 16:23 (спустя 17 часов)

[Q] 

прикольный мульт, спасибо раздающему
[Профиль]  [ЛС] 

Yrets

Флибустьер

159

Пост 18-Янв-2012 17:09 (спустя 46 минут)

[Q] 

Поглядим. Спасибо.
[Профиль]  [ЛС] 

лео76

Лоцман

Пост 19-Янв-2012 19:25 (спустя 1 день 2 часа)

[Q] 

Спасибо!!!!
[Профиль]  [ЛС] 

polozm

Легенда

Пост 20-Янв-2012 15:05 (спустя 19 часов)

[Q] 

мульт вроде прикольный :)

_________________
mac mini -2.0 GHz Intel Core i7/ 8 GB DDR3. /Intel HD 3000(512mb)OS X 10.9 Mavericks
[Профиль]  [ЛС] 

the_lame

Корсар

Пост 20-Янв-2012 22:20 (спустя 7 часов)

[Q] 

Как-то не впечатлил. Богатыри лучше
[Профиль]  [ЛС] 

FeudorM

Корсар

Пост 21-Янв-2012 06:42 (спустя 8 часов)

[Q] 

Спасибо. раздающему респект
[Профиль]  [ЛС] 

Pesok

Гроза морей

Пост 21-Янв-2012 08:59 (спустя 2 часа 16 минут)

[Q] 

особое спасибо! друзьям очень пригодитса

_________________
[Профиль]  [ЛС] 

Рында41

Морской Волк

Пост 21-Янв-2012 13:45 (спустя 4 часа)

[Q] 

Заценим. Спасибо!
[Профиль]  [ЛС] 

Hausser

Гроза морей

Пост 22-Янв-2012 16:01 (спустя 1 день 2 часа)

[Q] 

Мультфильм очень понравился, имхо лучше богатырей, раздающему респект!
[Профиль]  [ЛС] 

legion-mia

Штурман

Пост 29-Янв-2012 08:32 (спустя 6 дней)

[Q] 

спасибо
[Профиль]  [ЛС] 

Chiochanka

Морской Волк

Пост 29-Янв-2012 11:10 (спустя 2 часа 38 минут)

[Q] 

люблю такие мультфильмы! Спасибо!
[Профиль]  [ЛС] 

pro100userspb

Корсар

Пост 29-Янв-2012 13:44 (спустя 2 часа 34 минуты)

[Q] 

спасибо

_________________
[Профиль]  [ЛС] 

астролог

Морской Волк

Пост 29-Янв-2012 17:36 (спустя 3 часа)

[Q] 

спс merci bien
[Профиль]  [ЛС] 

Bozo

Флибустьер

Пост 30-Янв-2012 21:33 (спустя 1 день 3 часа)

[Q] 

честно говоря приелась уже эта однотипная серия, на раз посмотреть
[Профиль]  [ЛС] 

edik32

Морской Волк

Пост 31-Янв-2012 18:31 (спустя 20 часов)

[Q] 

МУЛЬТ ХОРОШИЙ НО ОЖИДАЛ БОЛЬШЕГО ДЕТИ СМЕЯЛИСЬ
[Профиль]  [ЛС] 

vepr54

Лоцман

Пост 01-Фев-2012 07:39 (спустя 13 часов)

[Q] 

спасибо посмотрим
[Профиль]  [ЛС] 
Показать сообщения:    
Ответить на тему

Текущее время: Сегодня 06:18

Часовой пояс: GMT + 4



Вы не можете начинать темы
Вы не можете отвечать на сообщения
Вы не можете редактировать свои сообщения
Вы не можете удалять свои сообщения
Вы не можете голосовать в опросах
Вы не можете прикреплять файлы к сообщениям
Вы не можете скачивать файлы

▼ Вниз