ML
     
  Уважаемый Гость!
Вы можете поддержать проект и зарегистрироваться у наших партнеров - онлайн-стратегия MyLands. При регистрации в игре Вы получите код, который сможете активировать после регистрации на pirat.ca и получить 1000 дублонов.

Ваш код:
5f4e94775bc0501caff7b254e79328d304c817d9
 
     

Семейка монстров / The Boxtrolls (Грэхэм Эннэйбл / Graham Annable, Энтони Стакки / Anthony Stacchi) [2014 г., мультфильм, фэнтези, комедия, приключения, семейный, HDRip] Dub [Лицензия]

Ответить на тему
 
Автор
Сообщение

Пост 19-Дек-2014 16:57

[Q] 

ara1205

-Семейка монстров / The Boxtrolls-- Производство: США
Год выпуска: 2014 г.
Жанр: мультфильм, фэнтези, комедия, приключения, семейный
Продолжительность: 01:36:10
Перевод: Профессиональный (полное дублирование) [Лицензия]-Режиссер: Грэхэм Эннэйбл / Graham Annable, Энтони Стакки / Anthony Stacchi-Роли озвучивали: Бен Кингсли, Джаред Харрис, Ник Фрост, Ричард Айоади, Трэйси Морган, Ди Брэдли Бейкер, Стивен Блум, Ника Футтерман
Роли дублировали: Кирилл Туранский, Даниил Эльдаров, Александр Гаврилин, Владимир Антипов,-Описание: Ему не повезло родиться в роскошном замке. Вместе с семейкой забавных монстров юноша поселился прямо под мостовой. Изысканные костюмы ему заменила обычная коробка. Зато каждую ночь он мог разгуливать по темным улицам в поисках новых приключений. Но однажды он встретил очаровательную девчушку из высшего общества — и мир вокруг изменился навсегда.- -Качество видео: HDRip
Контейнер: AVI
Видео кодек: XviD
Аудио кодек: AC3
Видео: 720x400, 23.976 fps, 1781 kbps avg, 0.258 bit/pixel
Аудио: 48 kHz, AC3 Dolby Digital, 3/2 (L,C,R,l,r) + LFE ch, ~384 kbps
Cубтитры: отсутствуют-
Общее
Полное имя : C:\Users\Ромик\Pictures\Семейка монстров\The Boxtrolls.2014.D.HDRip..avi
Формат : AVI
Формат/Информация : Audio Video Interleave
Размер файла : 1,46 Гбайт
Продолжительность : 1 ч. 36 м.
Общий поток : 2174 Кбит/сек
Программа кодирования : VirtualDubMod 1.5.10.3 | www.virtualdub-fr.org || (build 2550/release)
Библиотека кодирования : VirtualDubMod build 2550/release
Видео
Идентификатор : 0
Формат : MPEG-4 Visual
Профиль формата : Advanced [email protected]
Параметр BVOP формата : 2
Параметр QPel формата : Нет
Параметр GMC формата : Без точки перехода
Параметр матрицы формата : Default (MPEG)
Идентификатор кодека : XVID
Идентификатор кодека/Подсказка : XviD
Продолжительность : 1 ч. 36 м.
Битрейт : 1781 Кбит/сек
Ширина : 720 пикселей
Высота : 400 пикселей
Соотношение сторон : 16:9
Частота кадров : 23,976 кадра/сек
Цветовое пространство : YUV
Субдискретизация насыщенности : 4:2:0
Битовая глубина : 8 бит
Тип развёртки : Прогрессивная
Метод сжатия : С потерями
Бит/(Пиксели*Кадры) : 0.258
Размер потока : 1,20 Гбайт (82%)
Библиотека кодирования : XviD 1.2.1 (UTC 2008-12-04)
Аудио
Идентификатор : 1
Формат : AC-3
Формат/Информация : Audio Coding 3
Расширение режима : CM (complete main)
Параметр Endianness формата : Big
Идентификатор кодека : 2000
Продолжительность : 1 ч. 36 м.
Вид битрейта : Постоянный
Битрейт : 384 Кбит/сек
Каналы : 6 каналов
Расположение каналов : Front: L C R, Side: L R, LFE
Частота : 48,0 КГц
Битовая глубина : 16 бит
Метод сжатия : С потерями
Размер потока : 264 Мбайт (18%)
Выравнивание : Разделение по промежуткам
Продолжительность промежутка : 42 мс. (1,00 видеокадр)
Время предзагрузки промежутка : 500 мс.
-
-
Download / Скачать

Хотите скачать бесплатно? Зарегистрируйтесь на сайте (ссылка на регистрацию). Pirat.ca - самый быстрый торрент трекер в рунете!

Как скачивать  ·   Что такое торрент  ·   Рейтинг и ограничения

racom

2341

Пост 19-Дек-2014 19:58 (спустя 3 часа)

[Q] 

Де комментарии?)

_________________
[Профиль]  [ЛС] 

gnezd77

Флибустьер

Пост 19-Дек-2014 20:31 (спустя 32 минуты)

[Q] 

Ни че так.. добрый мульт... Спасибо!!! Лови бочку
[Профиль]  [ЛС] 

Alexlogin

Гроза морей

105

Пост 20-Дек-2014 19:13 (спустя 22 часа)

[Q] 

Спасибо доча обрадуется!
[Профиль]  [ЛС] 

MikeB

Гроза морей

Пост 20-Дек-2014 21:09 (спустя 1 час 56 минут)

[Q] 

хороший мультик
[Профиль]  [ЛС] 

abuuu

Мичман

Пост 21-Дек-2014 00:49 (спустя 3 часа)

[Q] 

Спасибо!!! Мне понравилось ураааааааааааааааааа будет что посмотреть

_________________
ё хо-хооо и бутылка рома!
[Профиль]  [ЛС] 

Васис

Корсар

1028

Пост 22-Дек-2014 12:47 (спустя 1 день 11 часов)

[Q] 

Лови бочку Автору респект!!!

_________________
[Профиль]  [ЛС] 

Golsergio

Флибустьер

Пост 22-Дек-2014 13:55 (спустя 1 час 7 минут)

[Q] 

прикольные коробочки... Спасибо!!!
[Профиль]  [ЛС] 

Showman

Корсар

Пост 22-Дек-2014 19:53 (спустя 5 часов)

[Q] 

Спасибо!!! Лови бочку
[Профиль]  [ЛС] 

femaxx

Корсар

Пост 22-Дек-2014 21:49 (спустя 1 час 55 минут)

[Q] 

Вы лучшие! Супер!
[Профиль]  [ЛС] 

Gordon 008

Корсар

538

Пост 29-Дек-2014 04:26 (спустя 6 дней)

[Q] 

Уже очень давно не видел настолько необычного мультфильма. Однозначно стоит посмотреть!
[Профиль]  [ЛС] 

olipov

Легенда

Пост 02-Янв-2015 17:54 (спустя 4 дня)

[Q] 

Автору респект!!!
[Профиль]  [ЛС] 

SonicSlash

Флибустьер

Пост 03-Янв-2015 20:51 (спустя 1 день 2 часа)

[Q] 

ну раз стоит глянем...

_________________
[Профиль]  [ЛС] 

Полтос

Флибустьер

Пост 04-Янв-2015 14:06 (спустя 17 часов)

[Q] 

Вполне симпатичный, атмосферныЙ мультик. Герои похоже кукольные или пластилиновые, но сделаны очень качественно. Немного мрачноватые краски, но эмоции и приключения персонажей делают мультик симпатичным. Быть может он не для самых маленьких, но моим понравился
Мне понравилось Автору респект!!!

_________________
Первый закон Прапорщика: Всё что поднимаемо - относительно!)
[Профиль]  [ЛС] 

bolikgeko

Гроза морей

209

Пост 16-Янв-2015 21:02 (спустя 12 дней)

[Q] 

Посмотрел просто СУПЕР! Лови бочку Автору респект!!!
[Профиль]  [ЛС] 

windj

Корсар

73

Пост 17-Янв-2015 16:45 (спустя 19 часов)

[Q] 

Мультфильм хороший, добрый и со смыслом.

_________________
[Профиль]  [ЛС] 
Показать сообщения:    
Ответить на тему

Текущее время: Сегодня 15:38

Часовой пояс: GMT + 4



Вы не можете начинать темы
Вы не можете отвечать на сообщения
Вы не можете редактировать свои сообщения
Вы не можете удалять свои сообщения
Вы не можете голосовать в опросах
Вы не можете прикреплять файлы к сообщениям
Вы не можете скачивать файлы

▼ Вниз