ML
     
  Уважаемый Гость!
Вы можете поддержать проект и зарегистрироваться у наших партнеров - онлайн-стратегия MyLands. При регистрации в игре Вы получите код, который сможете активировать после регистрации на pirat.ca и получить 1000 дублонов.

Ваш код:
0ea1bf889af42fca5f67d0a391efb3400850ad7c
 
     

Снежная королева 2: Перезаморозка (Алексей Цицилин) [2014 г., мультфильм, фэнтези, комедия, приключения, семейный,WEB-DLRip ] (Оригинальное)

Ответить на тему
 
Автор
Сообщение

Пост 29-Янв-2015 02:15

[Q] 

Lion15

Корсар

-Снежная королева 2: Перезаморозка-- Производство: Россия / Базелевс Продакшн, Wizart Animation
Режиссер: Алексей Цицилин
Жанр: мультфильм, фэнтези, комедия, приключения, семейный
Год выпуска: 2014 г.
Продолжительность: 01:13:26
Мировая премьера: 12 декабря 2014
Российская премьера: 1 января 2015, «Двадцатый Век Фокс СНГ»,
Перевод: Не требуется
Оригинальный аудиопоток: русский
Роли озвучивали: Иван Охлобыстин, Нюша Шурочкина, Анна Хилькевич, Александр Уман, Игорь Бортник, Алексей Лихницкий, Роман Юнусов, Александр Гудков, Михаил Тихонов-Описание: Тщеславный тролль Орм давно мечтает о лаврах героя, и наконец получает этот шанс: северный ветер грозит миру вечной зимой и похищает Марибель. Рука принцессы и королевство троллей достанутся тому, кто вызволит ее из снежного плена. Однажды Орм победил зиму с помощью друзей, теперь он хочет действовать в одиночку. На нем доспехи из сковородок, за ним — отряд трусливых троллей, а впереди — опасный путь к замку Снежной королевы. Но, к счастью, друзья не помнят обид: храбрая Герда, застенчивый Кай, удалая Альфида и весёлая Лута не бросят Орма в беде. А значит их ждут невероятные приключения!-Сэмпл IMDB КиноПоиск
Качество видео: WEB-DLRip
Контейнер: AVI
Видео кодек: XviD
Аудио кодек: AC3
Видео: 720x304 (2.37:1), 24 fps, XviD build 50 ~2105 kbps avg, 0.40 bit/pixel
Аудио: 48 kHz, AC3 Dolby Digital, 3/2 (L,C,R,l,r) + LFE ch, ~384 kbps
Cубтитры: отсутствуют
General
Complete name : W:\Snegnaya.K0roleva.2014.O.WEB-DLRip.1400Mb.avi
Format : AVI
Format/Info : Audio Video Interleave
File size : 1.37 GiB
Duration : 1h 18mn
Overall bit rate : 2 499 Kbps
Writing application : VirtualDubMod 1.5.10.2 (build 2540/release)
Writing library : VirtualDubMod build 2540/release
Video
ID : 0
Format : MPEG-4 Visual
Format profile : Advanced [email protected]
Format settings, BVOP : Yes
Format settings, QPel : No
Format settings, GMC : No warppoints
Format settings, Matrix : Default (MPEG)
Codec ID : XVID
Codec ID/Hint : XviD
Duration : 1h 18mn
Bit rate : 2 106 Kbps
Width : 720 pixels
Height : 304 pixels
Display aspect ratio : 2.35:1
Frame rate : 24.000 fps
Color space : YUV
Chroma subsampling : 4:2:0
Bit depth : 8 bits
Scan type : Progressive
Bits/(Pixel*Frame) : 0.401
Stream size : 1.15 GiB (84%)
Writing library : XviD 1.2.1 (UTC 2008-12-04)
Audio
ID : 1
Format : AC-3
Format/Info : Audio Coding 3
Mode extension : CM (complete main)
Codec ID : 2000
Duration : 1h 18mn
Bit rate mode : Constant
Bit rate : 384 Kbps
Channel(s) : 6 channels
Channel positions : Front: L C R, Side: L R, LFE
Sampling rate : 48.0 KHz
Bit depth : 16 bits
Stream size : 215 MiB (15%)
Alignment : Split accross interleaves
Interleave, duration : 42 ms (1.00 video frame)
Interleave, preload duration : 500 ms
Download / Скачать

Хотите скачать бесплатно? Зарегистрируйтесь на сайте (ссылка на регистрацию). Pirat.ca - самый быстрый торрент трекер в рунете!

Как скачивать  ·   Что такое торрент  ·   Рейтинг и ограничения

Пост 29-Янв-2015 03:09 (спустя 54 минуты)

Топик был перенесен из форума Мультфильмы (Трюм) в форум Отечественные полнометражные мультфильмы
Андря
 

Пост 29-Янв-2015 03:10 (спустя 55 минут)

Топик был перенесен из форума Отечественные полнометражные мультфильмы в форум Новинки (HD|DVD|BD| TV|SAT|PDTV| - Rips)
Андря
 

Mailonego

Лоцман

Пост 29-Янв-2015 10:17 (спустя 8 часов)

[Q] 

А чем между собой отличаются этот рип, и вот этот:
Снежная королева 2: Перезаморозка (Алексей Цицилин) [2014 г., Фэнтези, Приключения, Семейный, WEBRip]
[Профиль]  [ЛС] 

Geny4

Лоцман

Пост 29-Янв-2015 11:53 (спустя 1 час 36 минут)

[Q] 

спасибочки!давно ждал.
[Профиль]  [ЛС] 

Vinyard

Корсар

Пост 29-Янв-2015 15:12 (спустя 3 часа)

[Q] 

спасибо. смотрели в кинотеатре все семьей.
много шуток, которые детский мозг не может понять.
Ну и Охлобыстин немного напрягает своей картавостью.
[Профиль]  [ЛС] 

shalonina

Гроза морей

Пост 29-Янв-2015 20:34 (спустя 5 часов)

[Q] 

Спасибо! Супер!

_________________
[Профиль]  [ЛС] 

Antarres

Легенда

Пост 29-Янв-2015 22:49 (спустя 2 часа 14 минут)

[Q] 

Thanks !

_________________
[Профиль]  [ЛС] 

Jek@

Легенда

Пост 30-Янв-2015 16:56 (спустя 18 часов)

[Q] 

Спасибо!!! .
[Профиль]  [ЛС] 

Bozo

Флибустьер

Пост 31-Янв-2015 13:35 (спустя 20 часов)

[Q] 

спасибо, ребенку подарок, новый мульт )))
!COOL!
[Профиль]  [ЛС] 

srg078rus

Корсар

97

Пост 31-Янв-2015 13:48 (спустя 12 минут)

[Q] 

Спасибо!!! Лови бочку

_________________
[Профиль]  [ЛС] 

nes13

Штурман

Пост 31-Янв-2015 14:48 (спустя 1 час)

[Q] 

спасибочки!давно ждал.
[Профиль]  [ЛС] 

kerid

Морской Волк

Пост 31-Янв-2015 18:33 (спустя 3 часа)

[Q] 

спасибо. глянем
[Профиль]  [ЛС] 

Ambeg

Корсар

Пост 01-Фев-2015 13:37 (спустя 19 часов)

[Q] 

28 Спасибо
[Профиль]  [ЛС] 

Танюха10988

Гроза морей

Пост 02-Фев-2015 21:46 (спустя 1 день 8 часов)

[Q] 

Спасибо смотрим Лови бочку
[Профиль]  [ЛС] 

Shadow_Jack

Шкипер

Пост 03-Фев-2015 07:07 (спустя 9 часов)

[Q] 

Как по-мне, сценаристы мультов тупеют понемногу

_________________
Two beer or not two beer? (Shakesbeer)
Не люблю флудить, но так хочется вернуть себе шапочки:
[Профиль]  [ЛС] 

Анна 341662

Корсар

11

Пост 13-Фев-2015 19:59 (спустя 10 дней)

[Q] 

Лови бочку рискнем, посмотрим)
[Профиль]  [ЛС] 

Полтос

Флибустьер

Пост 16-Фев-2015 22:09 (спустя 3 дня)

[Q] 

Неплохой мульт - красочный и яркий, к тому же - русский. Первая часть как-то мимо меня прошла, но и без неё история выглядит вполне законченной и цельной. В паре мест мульт заставляет родителей напрячься - это я по-поводу целостности орешков и сосульки, непонятных отношениях Кая и кого-то мальчукового... Заметен закос под американского зрителя... Но в целом - мульт удался. К тому же детям понравился.
Одобрямс! Автору респект!!!

_________________
Первый закон Прапорщика: Всё что поднимаемо - относительно!)
[Профиль]  [ЛС] 
Показать сообщения:    
Ответить на тему

Текущее время: Сегодня 00:37

Часовой пояс: GMT + 4



Вы не можете начинать темы
Вы не можете отвечать на сообщения
Вы не можете редактировать свои сообщения
Вы не можете удалять свои сообщения
Вы не можете голосовать в опросах
Вы не можете прикреплять файлы к сообщениям
Вы не можете скачивать файлы

▼ Вниз