ML
     
  Уважаемый Гость!
Вы можете поддержать проект и зарегистрироваться у наших партнеров - онлайн-стратегия MyLands. При регистрации в игре Вы получите код, который сможете активировать после регистрации на pirat.ca и получить 1000 дублонов.

Ваш код:
c89b4b6523eaac3173e9a9c062ac1a19db575961
 
     

Три богатыря: Ход конем (Константин Феоктистов) [2014 г., мультфильм, комедия, приключения, фэнтези, HDRip] O (Лицензия)

Ответить на тему
 
Автор
Сообщение

Пост 24-Фев-2015 13:01

[Q] 

LPPI

-Три богатыря: Ход конем- Производство: Россия, Анимационная студия Мельница
Жанр: мультфильм, комедия, приключения, фэнтези
Год выпуска: 2014 г.
Продолжительность: 01:14:42
Российская премьера: 1 января 2015, «Наше Кино»-Режиссер: Константин Феоктистов
В ролях: Сергей Маковецкий, Дмитрий Быковский-Ромашов, Валерий Соловьев, Олег Куликович, Дмитрий Высоцкий, Дмитрий Нагиев, Наргиз Закирова, Гоша Куценко-Описание: Придворный конь Гай Юлий Цезарь на свою беду подслушивает разговор бояр и узнает о заговоре против князя. Что же делать? Защитить-то князя некому! Богатыри далеко — ловят разбойника Потаню, Горыныч в отпуске, войско на учениях… Но если плохие парни собираются захватить мир, то кому-то же надо его спасти? Кто же он, настоящий герой, который придет на помощь? Конечно, конь Юлий! Настоящий стратег и «великий комбинатор». Он непременно всех спасет, а если не спасет, то хотя бы постарается. Главное, чтобы операция по спасению мира не обернулась полной катастрофой.- -Качество видео: HDRip (Лицензия)
Контейнер: AVI
Видео кодек: XviD
Аудио кодек: AC3
Видео: 720x384 (1.88:1), 24 fps, XviD build 50 ~2161 kbps avg, 0.33 bit/pixel
Аудио: 48 kHz, AC3 Dolby Digital, 3/2 (L,C,R,l,r) + LFE ch, ~448 kbps
Cубтитры: отсутствуют
General
Complete name : D:\B0gat1r1.2014.O.HDRip.1400Mb.avi
Format : AVI
Format/Info : Audio Video Interleave
File size : 1.37 GiB
Duration : 1h 14mn
Overall bit rate : 2 619 Kbps
Writing application : VirtualDubMod 1.5.10.2 (build 2540/release)
Writing library : VirtualDubMod build 2540/release
Video
ID : 0
Format : MPEG-4 Visual
Format profile : Advanced [email protected]
Format settings, BVOP : 2
Format settings, QPel : No
Format settings, GMC : No warppoints
Format settings, Matrix : Custom
Codec ID : XVID
Codec ID/Hint : XviD
Duration : 1h 14mn
Bit rate : 2 162 Kbps
Width : 720 pixels
Height : 384 pixels
Display aspect ratio : 1.85:1
Frame rate : 24.000 fps
Color space : YUV
Chroma subsampling : 4:2:0
Bit depth : 8 bits
Scan type : Progressive
Compression mode : Lossy
Bits/(Pixel*Frame) : 0.326
Stream size : 1.13 GiB (83%)
Writing library : XviD 1.2.1 (UTC 2008-12-04)
Audio
ID : 1
Format : AC-3
Format/Info : Audio Coding 3
Mode extension : CM (complete main)
Format settings, Endianness : Big
Codec ID : 2000
Duration : 1h 14mn
Bit rate mode : Constant
Bit rate : 448 Kbps
Channel(s) : 6 channels
Channel positions : Front: L C R, Side: L R, LFE
Sampling rate : 48.0 KHz
Bit depth : 16 bits
Compression mode : Lossy
Stream size : 239 MiB (17%)
Alignment : Split accross interleaves
Interleave, duration : 42 ms (1.00 video frame)
Interleave, preload duratio : 500 ms
Download / Скачать

Хотите скачать бесплатно? Зарегистрируйтесь на сайте (ссылка на регистрацию). Pirat.ca - самый быстрый торрент трекер в рунете!

Как скачивать  ·   Что такое торрент  ·   Рейтинг и ограничения

alenfr

Пост 24-Фев-2015 16:43 (спустя 3 часа)

[Q] 

ОООО Супер !!
РОМ В ТРЮМ !!!

_________________
Кто может — делает, кто не может — учит.
______________________________________
Держи порох сухим, а шпагу острой.
[Профиль]  [ЛС] 

preacher82

Морской Волк

Пост 24-Фев-2015 21:46 (спустя 5 часов)

[Q] 

Лови бочку Пиратка рулез!!!
спасибо долго ждал.
[Профиль]  [ЛС] 

bolikgeko

Гроза морей

211

Пост 24-Фев-2015 22:26 (спустя 40 минут)

[Q] 

Спасибо раздающему! Лови бочку
[Профиль]  [ЛС] 

EDVAR

Легенда

Пост 24-Фев-2015 22:40 (спустя 14 минут)

[Q] 

Спасибо! Автору респект!!!

_________________
"Как других судить-вы судьи.Как себя-вы адвокаты"
[Профиль]  [ЛС] 

Djiguly

Корсар

102

Пост 25-Фев-2015 05:34 (спустя 6 часов)

[Q] 

Спасибо!!! Повторяться не буду на счет форматов,
ожидаем Ещё стоящего.

_________________
Djiguly
[Профиль]  [ЛС] 

enotko

Морской Волк

Пост 28-Фев-2015 16:35 (спустя 3 дня)

[Q] 

спасибо!! Щас заценим! !COOL!
[Профиль]  [ЛС] 

cruzzel

Корсар

Пост 02-Мар-2015 13:13 (спустя 1 день 20 часов)

[Q] 

Лови бочку Супер! посмотрим

_________________
NEWSLOL.NET
[Профиль]  [ЛС] 

Alex3954

Лоцман

Пост 25-Мар-2015 20:15 (спустя 23 дня)

[Q] 

большое спс , люблю мульты из этой серии . Лови дружище бочечку Лови бочку
[Профиль]  [ЛС] 

Pippo48

Корсар

Пост 25-Мар-2015 22:13 (спустя 1 час 58 минут)

[Q] 

Так себе мультфильм, серия скатилась в УГ
[Профиль]  [ЛС] 
Показать сообщения:    
Ответить на тему

Текущее время: Сегодня 22:29

Часовой пояс: GMT + 4



Вы не можете начинать темы
Вы не можете отвечать на сообщения
Вы не можете редактировать свои сообщения
Вы не можете удалять свои сообщения
Вы не можете голосовать в опросах
Вы не можете прикреплять файлы к сообщениям
Вы не можете скачивать файлы

▼ Вниз