ML
     
  Уважаемый Гость!
Вы можете поддержать проект и зарегистрироваться у наших партнеров - онлайн-стратегия MyLands. При регистрации в игре Вы получите код, который сможете активировать после регистрации на pirat.ca и получить 1000 дублонов.

Ваш код:
5f4e94775bc0501caff7b254e79328d304c817d9
 
     

Три богатыря: Ход конем (Константин Феоктистов) [2014 г., мультфильм, комедия, приключения, фэнтези, BDRip-AVC] O (Лицензия)

Ответить на тему
 
Автор
Сообщение

Пост 25-Фев-2015 00:54

[Q] 

LPPI

-Три богатыря: Ход конем- Производство: Россия, Анимационная студия Мельница
Жанр: мультфильм, комедия, приключения, фэнтези
Год выпуска: 2014 г.
Продолжительность: 01:14:43
Российская премьера: 1 января 2015, «Наше Кино»
Релиз на DVD: 24 февраля 2015, «Lizard Cinema Trade»
Релиз на Blu-Ray: 24 февраля 2015, «Lizard Cinema Trade»-Режиссер: Константин Феоктистов
В ролях: Сергей Маковецкий, Дмитрий Быковский-Ромашов, Валерий Соловьев, Олег Куликович, Дмитрий Высоцкий, Дмитрий Нагиев, Наргиз Закирова, Гоша Куценко-Описание: Придворный конь Гай Юлий Цезарь на свою беду подслушивает разговор бояр и узнает о заговоре против князя. Что же делать? Защитить-то князя некому! Богатыри далеко — ловят разбойника Потаню, Горыныч в отпуске, войско на учениях… Но если плохие парни собираются захватить мир, то кому-то же надо его спасти? Кто же он, настоящий герой, который придет на помощь? Конечно, конь Юлий! Настоящий стратег и «великий комбинатор». Он непременно всех спасет, а если не спасет, то хотя бы постарается. Главное, чтобы операция по спасению мира не обернулась полной катастрофой.- -Качество видео: BDRip-AVC (Лицензия)
Контейнер: MKV
Видео кодек: H.264
Аудио кодек: AC3
Видео: 1024x552 (1.85:1), 2 300 Kbps, 24 fps, 0.170 bit/pix
Аудио: AC3, 448 Kbps, 6 ch, 48.0 KHz
Cубтитры: отсутствуют
x264 [info]: frame I:1369 Avg QP:14.57 size:108696
x264 [info]: frame P:31056 Avg QP:17.17 size: 23734
x264 [info]: frame B:74807 Avg QP:18.03 size: 6118
General
Unique ID : 250525954214874114757655374033394175847 (0xBC798B305F7355F09AD678D73F6D8F67)
Complete name : C:\Users\Ivan\Desktop\Три.богатыря.Ход.конем.(2014).BDRip-AVC.mkv
Format : Matroska
Format version : Version 4 / Version 2
File size : 1.43 GiB
Duration : 1h 14mn
Overall bit rate : 2 745 Kbps
Encoded date : UTC 2015-02-24 20:43:14
Writing application : mkvmerge v7.6.0 ('Garden of Dreams') 64bit built on Feb 8 2015 13:04:34
Writing library : libebml v1.3.1 + libmatroska v1.4.2
DURATION : 01:14:43.008000000
NUMBER_OF_FRAMES : 140094
NUMBER_OF_BYTES : 251048448
_STATISTICS_WRITING_APP : mkvmerge v7.6.0 ('Garden of Dreams') 64bit built on Feb 8 2015 13:04:34
_STATISTICS_WRITING_DATE_UT : 2015-02-24 20:43:14
_STATISTICS_TAGS : BPS DURATION NUMBER_OF_FRAMES NUMBER_OF_BYTES
Video
ID : 1
Format : AVC
Format/Info : Advanced Video Codec
Format profile : [email protected]
Format settings, CABAC : Yes
Format settings, ReFrames : 7 frames
Codec ID : V_MPEG4/ISO/AVC
Duration : 1h 14mn
Bit rate : 2 300 Kbps
Width : 1 024 pixels
Height : 552 pixels
Display aspect ratio : 1.85:1
Frame rate mode : Constant
Frame rate : 24.000 fps
Color space : YUV
Chroma subsampling : 4:2:0
Bit depth : 8 bits
Scan type : Progressive
Bits/(Pixel*Frame) : 0.170
Stream size : 1.17 GiB (82%)
Title : Три богатыря: Ход конем
Writing library : x264 core 130 r2273 b3065e6
Encoding settings : cabac=1 / ref=7 / deblock=1:-3:-3 / analyse=0x3:0x133 / me=umh / subme=10 / psy=1 / psy_rd=1.00:0.15 / mixed_ref=0 / me_range=32 / chroma_me=1 / trellis=2 / 8x8dct=1 / cqm=0 / deadzone=21,11 / fast_pskip=0 / chroma_qp_offset=-3 / threads=12 / lookahead_threads=2 / sliced_threads=0 / nr=0 / decimate=0 / interlaced=0 / bluray_compat=0 / constrained_intra=0 / bframes=7 / b_pyramid=2 / b_adapt=2 / b_bias=0 / direct=3 / weightb=1 / open_gop=0 / weightp=2 / keyint=250 / keyint_min=24 / scenecut=40 / intra_refresh=0 / rc=2pass / mbtree=0 / bitrate=2300 / ratetol=1.0 / qcomp=0.60 / qpmin=0 / qpmax=69 / qpstep=4 / cplxblur=20.0 / qblur=0.5 / ip_ratio=1.40 / pb_ratio=1.30 / aq=1:1.00
Language : Russian
Default : Yes
Forced : No
DURATION : 01:14:42.959000000
NUMBER_OF_FRAMES : 107591
NUMBER_OF_BYTES : 1286429172
_STATISTICS_WRITING_APP : mkvmerge v7.6.0 ('Garden of Dreams') 64bit built on Feb 8 2015 13:04:34
_STATISTICS_WRITING_DATE_UT : 2015-02-24 20:43:14
_STATISTICS_TAGS : BPS DURATION NUMBER_OF_FRAMES NUMBER_OF_BYTES
Audio
ID : 2
Format : AC-3
Format/Info : Audio Coding 3
Mode extension : CM (complete main)
Format settings, Endianness : Big
Codec ID : A_AC3
Duration : 1h 14mn
Bit rate mode : Constant
Bit rate : 448 Kbps
Channel(s) : 6 channels
Channel positions : Front: L C R, Side: L R, LFE
Sampling rate : 48.0 KHz
Bit depth : 16 bits
Compression mode : Lossy
Stream size : 239 MiB (16%)
Title : Лицензия
Language : Russian
Default : Yes
Forced : No
Menu
00:00:00.000 : ru:Chapter 01
00:09:15.916 : ru:Chapter 02
00:18:48.000 : ru:Chapter 03
00:27:35.750 : ru:Chapter 04
00:37:23.791 : ru:Chapter 05
00:47:10.083 : ru:Chapter 06
00:54:14.791 : ru:Chapter 07
01:03:36.416 : ru:Chapter 08
Download / Скачать

Хотите скачать бесплатно? Зарегистрируйтесь на сайте (ссылка на регистрацию). Pirat.ca - самый быстрый торрент трекер в рунете!

Как скачивать  ·   Что такое торрент  ·   Рейтинг и ограничения

Пират Пиратович

2989

Пост 25-Фев-2015 02:35 (спустя 1 час 41 минута)

[Q] 

Контейнер: MKV конечно хорошо, но не мешало бы и AVI делать. А то этот MKV местами на телевизоре показывает, точнее картинка не синхрон со звуком иногда, особенно после паузы.
LPPI, Спасибо!!!

_________________
[Профиль]  [ЛС] 

Maks_e

Корсар

69

Пост 25-Фев-2015 03:40 (спустя 1 час 4 минуты)

[Q] 

Хороший мульт. Поднимает настроение. Спасибо!!! Лови бочку
[Профиль]  [ЛС] 

MikeB

Гроза морей

Пост 25-Фев-2015 03:46 (спустя 5 минут)

[Q] 

отличный мультфильм
[Профиль]  [ЛС] 

Djiguly

Корсар

102

Пост 25-Фев-2015 05:13 (спустя 1 час 27 минут)

[Q] 

648514Контейнер: MKV конечно хорошо, но не мешало бы и AVI делать. А то этот MKV местами на телевизоре показывает, точнее картинка не синхрон со звуком иногда, особенно после паузы.
LPPI, Спасибо!!!
А лучше Релизёру в разных форматах выкладывать,так сказать каждому по способностям.
Есть источник, угади всем!
дома мне MKV впору,а в машине AVI надо.
Респект Тебе LPPI !твой XviD в дороге смотреть буду ,работай Паря,Пираты ждут! Спасибо!!!
лицуху обожаю,ожидаю,не тороплю.

_________________
Djiguly
[Профиль]  [ЛС] 

EDVAR

Легенда

Пост 25-Фев-2015 09:31 (спустя 4 часа)

[Q] 

Спасибо!!! Прекрасный мульт!

_________________
"Как других судить-вы судьи.Как себя-вы адвокаты"
[Профиль]  [ЛС] 

Mollchun

Корсар

925

Пост 26-Фев-2015 21:36 (спустя 1 день 12 часов)

[Q] 

Хороший, качественный мульт, побольше бы таких.... Спасибо!!! Супер!

_________________
[Профиль]  [ЛС] 

Роман1412

Морской Волк

Пост 01-Мар-2015 01:32 (спустя 2 дня 3 часа)

[Q] 

Мультфильм не понравился, худшее по сравнению с предедущими
[Профиль]  [ЛС] 

Полтос

Флибустьер

Пост 01-Мар-2015 02:26 (спустя 54 минуты)

[Q] 

650260Мультфильм не понравился, худшее по сравнению с предедущими
Поддерживаю - плагиат из прошедших серий (про лоховское дерево), к тому же сильно уступает предыдущим фильмам.
На любителя Трафик потрачен зря!

_________________
Первый закон Прапорщика: Всё что поднимаемо - относительно!)
[Профиль]  [ЛС] 

lexxass79

Матрос

Пост 01-Мар-2015 10:09 (спустя 7 часов)

[Q] 

Засмотрим, оценим!
TS - спасибо за труды!!!
[Профиль]  [ЛС] 

BiOHAZARD

Корсар

502

Пост 02-Мар-2015 13:55 (спустя 1 день 3 часа)

[Q] 

СПАСИБО!!!!!!!!!!!! Автору респект!!! Пиратка рулез!!!
[Профиль]  [ЛС] 

Ivar1990

Морской Волк

Пост 12-Мар-2015 14:06 (спустя 10 дней)

[Q] 

Спасибо Лови бочку
[Профиль]  [ЛС] 

congress

Морской Волк

75

Пост 13-Мар-2015 14:12 (спустя 1 день)

[Q] 

Спасибо! будет что намедни глянуть)
Лови бочку

_________________
Котлеты – самые лучшие пирожки. У них и внутри мясо, и вместо теста – тоже мясо.
[Профиль]  [ЛС] 

Шелли

Пост 14-Мар-2015 18:18 (спустя 1 день 4 часа)

[Q] 

Не-не..Посмотрели, в принципе тема богатырей раскрыта- но нет!Еще конь остался..В следующей части- главный герой будет мирный ослик Моисей,против двенадцати апостолов.. Мне понравилось

_________________

Валерьянка прекрасно успокаивает.Всего пять капель на бутылку вискаря- и нервы как канаты)
[Профиль]  [ЛС] 

FuckOOF

Корсар

Пост 18-Мар-2015 13:03 (спустя 3 дня)

[Q] 

Буджем шматреть rum

_________________
[url] [/url]
[Профиль]  [ЛС] 

ALEHAN

Легенда

Пост 20-Мар-2015 23:18 (спустя 2 дня 10 часов)

[Q] 

Классный мульт если не оглядываться на первые три части, которые были просто шикарны.
[Профиль]  [ЛС] 

grosboy

Флибустьер

Пост 21-Мар-2015 16:58 (спустя 17 часов)

[Q] 

Солидный мульт как и все предыдущие в серии. Автору респект.

_________________
Щастье есть - его не может не быть...
[Профиль]  [ЛС] 

BooRZhuY

Штурман

Пост 31-Мар-2015 10:29 (спустя 9 дней)

[Q] 

Классный мультик! Спасибо!!!

_________________
[URL= [/URL]
[Профиль]  [ЛС] 

Maringer1

Штурман

20

Пост 08-Апр-2015 23:56 (спустя 8 дней)

[Q] 

Сейчас заценим! Спасибо!!!
[Профиль]  [ЛС] 

zlodeishe

Шкипер

Пост 12-Мар-2016 13:55 (спустя 11 месяцев 3 дня)

[Q] 

Спасибо!!!
Автору респект!!!

_________________
Кольт 45-го калибра бьёт 4-х тузов
[Профиль]  [ЛС] 

viktorsg

Шкипер

Пост 15-Апр-2016 10:35 (спустя 1 месяц 2 дня)

[Q] 

Спасибо, посмотрим! ))) !COOL! Спасибо!!!
[Профиль]  [ЛС] 
Показать сообщения:    
Ответить на тему

Текущее время: Сегодня 15:33

Часовой пояс: GMT + 4



Вы не можете начинать темы
Вы не можете отвечать на сообщения
Вы не можете редактировать свои сообщения
Вы не можете удалять свои сообщения
Вы не можете голосовать в опросах
Вы не можете прикреплять файлы к сообщениям
Вы не можете скачивать файлы

▼ Вниз