ML
     
  Уважаемый Гость!
Вы можете поддержать проект и зарегистрироваться у наших партнеров - онлайн-стратегия MyLands. При регистрации в игре Вы получите код, который сможете активировать после регистрации на pirat.ca и получить 1000 дублонов.

Ваш код:
db0e0ad91548759ffeb9bb88bed405e1a4b3c165
 
     

Ку! Кин-дза-дза (Георгий Данелия, Татьяна Ильина) [2013 г., мультфильм, фантастика, комедия, BDRip]

Ответить на тему
 
Автор
Сообщение

Пост 09-Мар-2015 23:47

[Q] 

LPPI

-Ку! Кин-дза-дза- Производство: Россия, Первый канал, Кинокомпания CTB, Ритм, Югра-фильм
Жанр: мультфильм, фантастика, комедия
Год выпуска: 2013 г.
Продолжительность: 01:36:27
Российская премьера: 11 апреля 2013, «Наше Кино»
Дата выхода DVD: 14 мая 2013, «Lizard Cinema Trade»
Дата выхода Blu-Ray: 14 мая 2013, «Lizard Cinema Trade»-Режиссер: Георгий Данелия, Татьяна Ильина
В ролях: Николай Губенко, Иван Цехмистренко, Андрей Леонов, Алексей Колган, Александр Адабашьян, Георгий Данелия, Игорь Кваша, Вахтанг Кикабидзе, Галина Данелия-Юркова, Полина Кутепова-Описание: Начинающий диджей Толик и всемирно известный виолончелист Владимир Чижов встречают на шумной московской улице босого человека. Нажав на кнопку странной машинки, герои перемещаются на пустынную планету Плюк. Анимационный ремейк любимого всеми фильма «Кин-дза-дза!» не менее увлекательно и смешно, чем оригинал, рассказывает о приключениях Толика и дяди Вовы. В этом мире песка жители делятся на две категории — пацаков и чатлан, простая спичка обладает невероятной ценностью, а людей встречают и провожают по цвету штанов.-Сэмпл КиноПоиск-Качество видео: BDRip
Контейнер: AVI
Видео кодек: XviD
Аудио кодек: AC3
Видео: 704x400 (1.76:1), 23.976 fps, XviD build 65 ~1761 kbps avg, 0.26 bit/pixel
Аудио: 48 kHz, AC3 Dolby Digital, 3/2 (L,C,R,l,r) + LFE ch, ~384 kbps
Cубтитры: отсутствуют
General
Complete name : D:\Ku!.Kin.dza.dza.2013.BDRip.avi
Format : AVI
Format/Info : Audio Video Interleave
File size : 1.45 GiB
Duration : 1h 36mn
Overall bit rate : 2 155 Kbps
Writing application : VirtualDubMod 1.5.10.2 (build 2540/release)
Video
ID : 0
Format : MPEG-4 Visual
Format profile : Advanced [email protected]
Format settings, BVOP : 1
Format settings, QPel : No
Format settings, GMC : No warppoints
Format settings, Matrix : Custom
Codec ID : XVID
Codec ID/Hint : XviD
Duration : 1h 36mn
Bit rate : 1 761 Kbps
Width : 704 pixels
Height : 400 pixels
Display aspect ratio : 16:9
Frame rate : 23.976 fps
Color space : YUV
Chroma subsampling : 4:2:0
Bit depth : 8 bits
Scan type : Progressive
Compression mode : Lossy
Bits/(Pixel*Frame) : 0.261
Stream size : 1.19 GiB (82%)
Writing library : XviD 65
Audio
ID : 1
Format : AC-3
Format/Info : Audio Coding 3
Mode extension : CM (complete main)
Format settings, Endianness : Big
Codec ID : 2000
Duration : 1h 36mn
Bit rate mode : Constant
Bit rate : 384 Kbps
Channel(s) : 6 channels
Channel positions : Front: L C R, Side: L R, LFE
Sampling rate : 48.0 KHz
Bit depth : 16 bits
Compression mode : Lossy
Stream size : 265 MiB (18%)
Alignment : Split accross interleaves
Interleave, duration : 42 ms (1.00 video frame)
Interleave, preload duratio : 500 ms
Download / Скачать

Хотите скачать бесплатно? Зарегистрируйтесь на сайте (ссылка на регистрацию). Pirat.ca - самый быстрый торрент трекер в рунете!

Как скачивать  ·   Что такое торрент  ·   Рейтинг и ограничения

Пост 10-Мар-2015 00:16 (спустя 29 минут)

Топик был перенесен из форума Мультфильмы (Трюм) в форум Отечественные полнометражные мультфильмы
Андря
 

gaucho

Лоцман

Пост 10-Мар-2015 00:36 (спустя 49 минут)

[Q] 

Первый! Раздавать будем или как?
[Профиль]  [ЛС] 

Dazdranargon

Флибустьер

Пост 10-Мар-2015 14:56 (спустя 14 часов)

[Q] 

Осилил минут десять и выключил. Шлак дичайший!

_________________

[Профиль]  [ЛС] 

torr901

Корсар

Пост 18-Мар-2015 17:57 (спустя 8 дней)

[Q] 

То ли дело Кин-дза-дза! (Георгий Данелия) [1986 г., фантастика, драма, комедия., DVDRip]
[Профиль]  [ЛС] 

TriGun

Морской Волк

Пост 15-Май-2015 02:22 (спустя 1 месяц 27 дней)

[Q] 

забрал! Пиратка рулит!

_________________
[Профиль]  [ЛС] 
Показать сообщения:    
Ответить на тему

Текущее время: Сегодня 08:07

Часовой пояс: GMT + 4



Вы не можете начинать темы
Вы не можете отвечать на сообщения
Вы не можете редактировать свои сообщения
Вы не можете удалять свои сообщения
Вы не можете голосовать в опросах
Вы не можете прикреплять файлы к сообщениям
Вы не можете скачивать файлы

▼ Вниз