ML
     
  Уважаемый Гость!
Вы можете поддержать проект и зарегистрироваться у наших партнеров - онлайн-стратегия MyLands. При регистрации в игре Вы получите код, который сможете активировать после регистрации на pirat.ca и получить 1000 дублонов.

Ваш код:
5f4e94775bc0501caff7b254e79328d304c817d9
 
     

Необыкновенные приключения Карика и Вали (Александр Люткевич) [2005 г., Мультфильм, DVDRip]

Ответить на тему
 
Автор
Сообщение

Пост 23-Янв-2012 12:07

[Q] 

Znoi

Флибустьер

-Необыкновенные приключения Карика и Вали
--Год выпуска: 2005
Дата выхода DVD: 24 января 2012
Производство: Россия , «Центр национального фильма»
Жанр: Мультфильм
Продолжительность: 00:56:33--Перевод: Не требуется
Субтитры: отсутствуют--Режиссер: Александр Люткевич--В ролях
Николай Дроздов, Дарья Петрова, Георгий Мурадян, Алексей Колган, Анна Глазкова--Описание
Брат и сестра, Карик и Валя, случайно уменьшили себя до размеров насекомых, съев необычные пилюли, найденные ими в квартире их соседа, профессора Енотова. Верхом на стрекозе дети переносятся в удивительный мир растений и насекомых, живущий по своим законам, неведомым человеку.Пока ребят ищут безутешные родители и милиция, профессор Енотов понимает, куда пропали дети. Выпив пилюли и уменьшившись, он спешит на помощь Карику и Вале. Героям предстоят невероятные приключения и потрясающие открытия в мире флоры и фауны на пути домой.....-- --Источник/Качество: DVDRip
Формат: AVI
Видео кодек: XviD
Аудио кодек: MP3
Видео: XviD, 1705 Кбит/с, 720x544 пикс, 25.000 кадр/сек
Аудио: MP3, 2 ch, 128 Кбит/с, 48,0 КГц
General
Complete name : D:\Neobyknovennye.priklucheniya.Karika.i.Vali.2005.DVDRip.[pirat.ca].avi
Format : AVI
Format/Info : Audio Video Interleave
File size : 745 MiB
Duration : 56mn 33s
Overall bit rate : 1 842 Kbps
Writing application : VirtualDubMod 1.5.10.3 | www.virtualdub-fr.org || (build 2550/release)
Writing library : VirtualDubMod build 2550/release
Video
ID : 0
Format : MPEG-4 Visual
Format profile : Advanced [email protected]
Format settings, BVOP : 1
Format settings, QPel : No
Format settings, GMC : No warppoints
Format settings, Matrix : Custom
Codec ID : XVID
Codec ID/Hint : XviD
Duration : 56mn 33s
Bit rate : 1 705 Kbps
Width : 720 pixels
Height : 544 pixels
Display aspect ratio : 4:3
Frame rate : 25.000 fps
Color space : YUV
Chroma subsampling : 4:2:0
Bit depth : 8 bits
Scan type : Progressive
Compression mode : Lossy
Bits/(Pixel*Frame) : 0.174
Stream size : 690 MiB (93%)
Writing library : XviD 64
Audio
ID : 1
Format : MPEG Audio
Format version : Version 1
Format profile : Layer 3
Codec ID : 55
Codec ID/Hint : MP3
Duration : 56mn 33s
Bit rate mode : Constant
Bit rate : 128 Kbps
Channel(s) : 2 channels
Sampling rate : 48.0 KHz
Compression mode : Lossy
Stream size : 51.8 MiB (7%)
Alignment : Aligned on interleaves
Interleave, duration : 40 ms (1.00 video frame)
Interleave, preload duration : 504 ms
Writing library : LAME3.99.1
Download / Скачать

Хотите скачать бесплатно? Зарегистрируйтесь на сайте (ссылка на регистрацию). Pirat.ca - самый быстрый торрент трекер в рунете!

Как скачивать  ·   Что такое торрент  ·   Рейтинг и ограничения

Пост 23-Янв-2012 12:15 (спустя 8 минут)

Топик был перенесен из форума Мультипликация в форум Отечественные полнометражные мультфильмы

Skinwalker
 

olmed

Корсар

Пост 23-Янв-2012 20:43 (спустя 8 часов)

[Q] 

качнем
[Профиль]  [ЛС] 

Александр 198001

Шкипер

Пост 23-Янв-2012 22:01 (спустя 1 час 18 минут)

[Q] 

Спасибо!
[Профиль]  [ЛС] 

Znoi ®

Флибустьер

1163

Пост 24-Янв-2012 18:56 (спустя 20 часов)

[Q] 

Спасибо!
Пожалуйста
[Профиль]  [ЛС] 

джон макджон

Лоцман

Пост 11-Авг-2012 10:16 (спустя 6 месяцев 17 дней)

[Q] 

спасибо, отличный мультик!
[Профиль]  [ЛС] 

катюшка

Пост 18-Авг-2012 21:14 (спустя 7 дней)

[Q] 

aa спасибо.
[Профиль]  [ЛС] 

Nemo

Шкипер

Пост 11-Апр-2014 09:39 (спустя 1 год 7 месяцев)

[Q] 

Спасибо!!! Cgfcb,j!!!!
[Профиль]  [ЛС] 
Показать сообщения:    
Ответить на тему

Текущее время: Сегодня 15:34

Часовой пояс: GMT + 4



Вы не можете начинать темы
Вы не можете отвечать на сообщения
Вы не можете редактировать свои сообщения
Вы не можете удалять свои сообщения
Вы не можете голосовать в опросах
Вы не можете прикреплять файлы к сообщениям
Вы не можете скачивать файлы

▼ Вниз