ML
     
  Уважаемый Гость!
Вы можете поддержать проект и зарегистрироваться у наших партнеров - онлайн-стратегия MyLands. При регистрации в игре Вы получите код, который сможете активировать после регистрации на pirat.ca и получить 1000 дублонов.

Ваш код:
9cfe162481db953a6549f32179d7b3900b8b8643
 
     

Чародей равновесия. Тайна Сухаревой башни (Сергей Серегин) [2015 г., мультфильм, фэнтези, история, WEB-DLRip] Original (RUS) [iTunes]

Ответить на тему
 
Автор
Сообщение

Пост 27-Апр-2015 12:45

[Q] 

aleksey99

--Чародей равновесия. Тайна Сухаревой башни-- Производство: Россия
Год выпуска: 2015 г.
Жанр: мультфильм, фэнтези, история
Продолжительность: 01:13:24--Премьера (РФ): 26 марта 2015, «Каропрокат»--Режиссер: Сергей Серегин--В ролях: Прохор Чеховской, Ольга Шорохова, Диомид Виноградов, Александр Тараньжин, Станислав Дужников, Вадим Демчог, Алла Санникова, Сергей Габриэлян, Алексей Емцов, Алексей Иващенко--Описание: Россия, конец 17 века. Царь Петр Первый издает указ о праздновании Нового года. Ко двору царя под видом ученого-механика приезжает Магистр темной магии, который стремится попасть в Волшебные Миры и вернуть свою магическую силу. Врата Волшебных миров находятся в Москве в Сухаревой башне. Их охраняет граф Яков Брюс — знаменитый сподвижник царя Петра, ученый, колдун и Чародей Равновесия. Ученик Брюса, подросток Петя, случайно узнает о коварных планах Магистра и спешит к Сухаревой башне, чтобы предупредить дочь Брюса Маргариту об опасности. Дети ссорятся и нечаянно разрывают старинный манускрипт, в котором заключена магическая сила Брюса. Для восстановления манускрипта дети отправляются в опасное приключение в Волшебные миры.-- --Качество видео: WEB-DLRip
Контейнер: AVI
Видео кодек: XviD
Аудио кодек: AC3
Видео: 720x400 (1.80:1), 25 fps, XviD build 50 ~1883 kbps avg, 0.26 bit/pixel
Аудио: 48 kHz, AC3 Dolby Digital, 3/2 (L,C,R,l,r) + LFE ch, ~384 kbps
Cубтитры: отсутствуют
Общее
Полное имя : E:\T2\Charodej.ravnovesija.2015.WEB-DLRip.avi
Формат : AVI
Формат/Информация : Audio Video Interleave
Размер файла : 1,17 Гбайт
Продолжительность : 1 ч. 13 м.
Общий поток : 2278 Кбит/сек
Программа кодирования : VirtualDubMod 1.5.10.2 (build 2540/release)
Библиотека кодирования : VirtualDubMod build 2540/release
Видео
Идентификатор : 0
Формат : MPEG-4 Visual
Профиль формата : Advanced [email protected]
Параметр BVOP формата : 2
Параметр QPel формата : Нет
Параметр GMC формата : Без точки перехода
Параметр матрицы формата : Default (MPEG)
Идентификатор кодека : XVID
Идентификатор кодека/Подсказка : XviD
Продолжительность : 1 ч. 13 м.
Битрейт : 1884 Кбит/сек
Ширина : 720 пикселей
Высота : 400 пикселей
Соотношение сторон : 16:9
Частота кадров : 25,000 кадров/сек
Цветовое пространство : YUV
Субдискретизация насыщенности : 4:2:0
Битовая глубина : 8 бит
Тип развёртки : Прогрессивная
Метод сжатия : С потерями
Бит/(Пиксели*Кадры) : 0.262
Размер потока : 989 Мбайт (83%)
Библиотека кодирования : XviD 1.2.1 (UTC 2008-12-04)
Аудио
Идентификатор : 1
Формат : AC-3
Формат/Информация : Audio Coding 3
Расширение режима : CM (complete main)
Параметр Endianness формата : Big
Идентификатор кодека : 2000
Продолжительность : 1 ч. 13 м.
Вид битрейта : Постоянный
Битрейт : 384 Кбит/сек
Каналы : 6 каналов
Расположение каналов : Front: L C R, Side: L R, LFE
Частота : 48,0 КГц
Битовая глубина : 16 бит
Метод сжатия : С потерями
Размер потока : 202 Мбайт (17%)
Выравнивание : Разделение по промежуткам
Продолжительность промежутка : 40 мс. (1,00 видеокадр)
Время предзагрузки промежутка : 500 мс.
Трейлер
Download / Скачать

Хотите скачать бесплатно? Зарегистрируйтесь на сайте (ссылка на регистрацию). Pirat.ca - самый быстрый торрент трекер в рунете!

Как скачивать  ·   Что такое торрент  ·   Рейтинг и ограничения

Lion15

Корсар

6499

Пост 27-Апр-2015 14:19 (спустя 1 час 34 минуты)

[Q] 

aleksey99, рип кривой, на замену Чародей равновесия. Тайна Сухаревой башни (Сергей Серегин) [2015 г., мультфильм, фэнтези, история, WEB-DLRip] [iTunes]

_________________
Не пытайтесь меня перекроить под себя, все равно..
[Профиль]  [ЛС] 

aleksey99 ®

282417

Пост 27-Апр-2015 14:31 (спустя 12 минут)

[Q] 

Lion15, в вашем рипе 2 одинаковые аудиодороги, тут одна.

_________________

[Профиль]  [ЛС] 

Lion15

Корсар

6499

Пост 27-Апр-2015 14:40 (спустя 8 минут)

[Q] 

aleksey99, это ничего не меняет.На ваше усмотрение, моё дело предложить.

_________________
Не пытайтесь меня перекроить под себя, все равно..
[Профиль]  [ЛС] 

Purshun

Корсар

115

Пост 27-Апр-2015 14:46 (спустя 5 минут)

[Q] 

Спасибо!!!
Автору респект!!! Лови бочку

_________________
[Профиль]  [ЛС] 

Ganjik

Пост 27-Апр-2015 16:14 (спустя 1 час 27 минут)

[Q] 

фэнтези, история
эти же жанры прям сходны друг с другом, чтобы быть рядом вместе bm и вообще это документалистика, основанная на реальных событиях af
[Профиль]  [ЛС] 

Шелли

Пост 27-Апр-2015 17:43 (спустя 1 час 29 минут)

[Q] 

И мне и малому очень понравилось))Не скажу,что прям смешно-смешной но увлекательный) Всем качать!!! Лови бочку

_________________

Валерьянка прекрасно успокаивает.Всего пять капель на бутылку вискаря- и нервы как канаты)
[Профиль]  [ЛС] 

Jek@

Легенда

Пост 27-Апр-2015 18:23 (спустя 40 минут)

[Q] 

Спасибо!!! .
[Профиль]  [ЛС] 

C0y0te

1422

Пост 27-Апр-2015 18:36 (спустя 12 минут)

[Q] 

Раздающему респект! Лови бочку
[Профиль]  [ЛС] 

bolin

Флибустьер

Пост 27-Апр-2015 18:43 (спустя 6 минут)

[Q] 

Забираю мальчикам!!! Спасибо!!!
[Профиль]  [ЛС] 

salavat1234

Гроза морей

Пост 28-Апр-2015 19:47 (спустя 1 день 1 час)

[Q] 

Ребёнок посмотрел с удовольствием. Спасибо!!! Лови бочку
[Профиль]  [ЛС] 

kudrjavy

Флибустьер

Пост 30-Апр-2015 00:19 (спустя 1 день 4 часа)

[Q] 

Спасибо!!! Лови бочку

_________________
Девушки-как печеньки: ломаются,пока не намокнут...
[Профиль]  [ЛС] 

The_suicide2

Штурман

11

Пост 30-Апр-2015 06:01 (спустя 5 часов)

[Q] 

Панов? Тайный город? ))) Первое что подумалось))) Будем посмотреть
[Профиль]  [ЛС] 

Cepreu

Морской Волк

Пост 30-Апр-2015 19:38 (спустя 13 часов)

[Q] 

Мультик - супер.
[Профиль]  [ЛС] 

Andrey Tuma

Морской Волк

Пост 30-Апр-2015 23:31 (спустя 3 часа)

[Q] 

Могут же наши мультики делать 5 бабов молодцы! Автору респект!!! Мне понравилось

_________________
[Профиль]  [ЛС] 

Пост 06-Июн-2015 09:25 (спустя 1 месяц 5 дней)

Топик был перенесен из форума Новинки (HD|DVD|BD| TV|SAT|PDTV| - Rips) в форум Отечественные полнометражные мультфильмы
aleksey99
 
Показать сообщения:    
Ответить на тему

Текущее время: Сегодня 06:00

Часовой пояс: GMT + 4



Вы не можете начинать темы
Вы не можете отвечать на сообщения
Вы не можете редактировать свои сообщения
Вы не можете удалять свои сообщения
Вы не можете голосовать в опросах
Вы не можете прикреплять файлы к сообщениям
Вы не можете скачивать файлы

▼ Вниз