ML
     
  Уважаемый Гость!
Вы можете поддержать проект и зарегистрироваться у наших партнеров - онлайн-стратегия MyLands. При регистрации в игре Вы получите код, который сможете активировать после регистрации на pirat.ca и получить 1000 дублонов.

Ваш код:
e6008d9811a0b6a1393c3dc51ecd7bc35637bc21
 
     

Смешарики. Начало (Денис Чернов) [2011 г., мультфильм, комедия, приключения, семейный, DVDRip-AVC] (лицензия) [internal release]

Ответить на тему
 
Автор
Сообщение

Пост 24-Янв-2012 23:02

[Q] 

Green

Шкипер

---Смешарики. Начало --«Все по-взрослому!»- Год выпуска: 2011
Российская премьера: 22 декабря 2011
Дата выхода DVD: 26 января 2012
Производство: Россия, Базелевс Продакшн
Жанр: мультфильм, комедия, приключения, семейный
Продолжительность: 01:27:12
Перевод: Не требуется [лицензия]
Режиссер: Денис Чернов
В ролях
Вадим Бочанов, Сергей Мардарь, Антон Виноградов, Светлана Письмиченко, Владимир Постников, Михаил Черняк, Ксения Бржезовская, Михаил Хрусталев, Владимир Маслаков, Андрей Лёвин
Описание
Такую экстремальную историю про Смешариков вы не могли себе представить: покинув свою уютную страну, Смешарики оказываются в современном мегаполисе в роли супергероев! Зачем? Они приняли очень важное для себя решение — спасти мир от нависшей угрозы. Этот «ответственный» шаг приводит к самому захватывающему приключению в их жизни!
Источник/Качество: DVDRip-AVC | Сэмпл | КиноПоиск
Формат: MKV
Видео кодек: H.26x
Аудио кодек: AC3
Видео: [email protected], 25.000 fps, 1 940 Kbps
Аудио: 6 channels, 48.0 KHz, 320 Kbps
General
Complete name : D:Smeshariki.Nachalo.2011.O.DVDRip-AVC.Green.mkv
Format : Matroska
File size : 1.37 GiB
Duration : 1h 26mn
Overall bit rate : 2 267 Kbps
Encoded date : UTC 2012-01-24 18:58:50
Writing application : mkvmerge v4.0.0 ('The Stars were mine') сборка от Jun 6 2010 16:18:42
Writing library : libebml v1.0.0 + libmatroska v1.0.0
Video
ID : 1
Format : AVC
Format/Info : Advanced Video Codec
Format profile : [email protected]
Format settings, CABAC : Yes
Format settings, ReFrames : 8 frames
Codec ID : V_MPEG4/ISO/AVC
Duration : 1h 26mn
Bit rate : 1 940 Kbps
Width : 720 pixels
Height : 576 pixels
Display aspect ratio : 16:9
Frame rate : 25.000 fps
Standard : PAL
Color space : YUV
Chroma subsampling : 4:2:0
Bit depth : 8 bits
Scan type : Progressive
Bits/(Pixel*Frame) : 0.187
Stream size : 1.15 GiB (84%)
Writing library : x264 core 113 r1884 7313bb5
Audio
ID : 2
Format : AC-3
Format/Info : Audio Coding 3
Mode extension : CM (complete main)
Codec ID : A_AC3
Duration : 1h 26mn
Bit rate mode : Constant
Bit rate : 320 Kbps
Channel(s) : 6 channels
Channel positions : Front: L C R, Side: L R, LFE
Sampling rate : 48.0 KHz
Bit depth : 16 bits
Stream size : 198 MiB (14%)
Download / Скачать

Хотите скачать бесплатно? Зарегистрируйтесь на сайте (ссылка на регистрацию). Pirat.ca - самый быстрый торрент трекер в рунете!

Как скачивать  ·   Что такое торрент  ·   Рейтинг и ограничения

Пост 24-Янв-2012 23:11 (спустя 8 минут)

Топик был перенесен из форума Мультипликация в форум Новинки (HD|DVD|BD|TV|SAT|PDTV| - Rips)

Skinwalker
 

dmitriydvg

Лоцман

Пост 24-Янв-2012 23:49 (спустя 47 минут)

[Q] 

Судя по скринам-чтото с форматом не то, вытянутые шарики какие то)) или так и должно быть?
[Профиль]  [ЛС] 

dmitriydvg

Лоцман

Пост 24-Янв-2012 23:53 (спустя 3 минуты)

[Q] 

а вот все норм)))
[Профиль]  [ЛС] 

saggi

Шкипер

Пост 25-Янв-2012 00:38 (спустя 45 минут)

[Q] 

ха-ха забавно
[Профиль]  [ЛС] 

Jigsaw

Пост 25-Янв-2012 15:15 (спустя 14 часов)

[Q] 

так это сембл значит сняли в кинотеатре
 

leonid.

Флибустьер

Пост 25-Янв-2012 18:14 (спустя 2 часа 58 минут)

[Q] 

Спасибо!!!
[Профиль]  [ЛС] 

Bozo

Флибустьер

Пост 25-Янв-2012 18:32 (спустя 17 минут)

[Q] 

беру ребенку на вырост ))
[Профиль]  [ЛС] 

baltimor337

Корсар

Пост 25-Янв-2012 18:54 (спустя 22 минуты)

[Q] 

спасибо
[Профиль]  [ЛС] 

the_lame

Корсар

Пост 25-Янв-2012 19:41 (спустя 46 минут)

[Q] 

Спасибо. Забираю
[Профиль]  [ЛС] 

fjurer

Морской Волк

Пост 25-Янв-2012 20:49 (спустя 1 час 8 минут)

[Q] 

Спасибо, ребенок очень просил!
[Профиль]  [ЛС] 

Александр 198001

Шкипер

Пост 25-Янв-2012 22:45 (спустя 1 час 55 минут)

[Q] 

Спасибо.
[Профиль]  [ЛС] 

ArmeethGarry

Морской Волк

Пост 25-Янв-2012 23:59 (спустя 1 час 14 минут)

[Q] 

Спасибо!!! Дети рады!!!
[Профиль]  [ЛС] 

xxx4ervxxx

Морской Волк

Пост 26-Янв-2012 07:48 (спустя 7 часов)

[Q] 

Спасибо!!
[Профиль]  [ЛС] 

Aleksz81

Лоцман

Пост 26-Янв-2012 11:41 (спустя 3 часа)

[Q] 

Спасибо!Посмотрим с ребёнком...
[Профиль]  [ЛС] 

polozm

Легенда

Пост 26-Янв-2012 13:36 (спустя 1 час 55 минут)

[Q] 

благодарствуем

_________________
mac mini -2.0 GHz Intel Core i7/ 8 GB DDR3. /Intel HD 3000(512mb)OS X 10.9 Mavericks
[Профиль]  [ЛС] 

V.Spectre

Морской Волк

Пост 28-Янв-2012 20:43 (спустя 2 дня 7 часов)

[Q] 

Спасибо.
[Профиль]  [ЛС] 

ursus

Морской Волк

Пост 01-Фев-2012 23:15 (спустя 4 дня)

[Q] 

[Профиль]  [ЛС] 

вал&нтин26

Штурман

Пост 06-Фев-2012 22:09 (спустя 4 дня)

[Q] 

[Профиль]  [ЛС] 

ravinmtv

Морской Волк

Пост 07-Фев-2012 18:35 (спустя 20 часов)

[Q] 

[Профиль]  [ЛС] 

anonymoys

Гроза морей

901

Пост 07-Фев-2012 19:14 (спустя 38 минут)

[Q] 

[Профиль]  [ЛС] 

grubov

Морской Волк

54

Пост 08-Фев-2012 21:19 (спустя 1 день 2 часа)

[Q] 

[Профиль]  [ЛС] 

ad123

Шкипер

Пост 10-Фев-2012 13:15 (спустя 1 день 15 часов)

[Q] 

cx
[Профиль]  [ЛС] 

Olegarkh73

Корсар

240

Пост 11-Фев-2012 14:51 (спустя 1 день 1 час)

[Q] 

Благодарю
[Профиль]  [ЛС] 

Пост 20-Фев-2012 10:54 (спустя 8 дней)

Топик был перенесен из форума Новинки (HD|DVD|BD|TV|SAT|PDTV| - Rips) в форум Отечественные полнометражные мультфильмы

Skinwalker
 

Nemo

Шкипер

Пост 18-Мар-2012 12:20 (спустя 1 месяц 6 дней)

[Q] 

Хороший мультфильм
[Профиль]  [ЛС] 

катюшка

Пост 18-Авг-2012 21:26 (спустя 5 месяцев)

[Q] 

класнинький мультик. bq
[Профиль]  [ЛС] 

егорыч1986

Лоцман

Пост 01-Сен-2012 13:00 (спустя 13 дней)

[Q] 


_________________
[Профиль]  [ЛС] 

mel2517

Юнга

Пост 17-Июл-2014 10:58 (спустя 1 год 10 месяцев)

[Q] 

спасибо, детям понравилось
[Профиль]  [ЛС] 
Показать сообщения:    
Ответить на тему

Текущее время: Сегодня 02:05

Часовой пояс: GMT + 4



Вы не можете начинать темы
Вы не можете отвечать на сообщения
Вы не можете редактировать свои сообщения
Вы не можете удалять свои сообщения
Вы не можете голосовать в опросах
Вы не можете прикреплять файлы к сообщениям
Вы не можете скачивать файлы

▼ Вниз