ML
     
  Уважаемый Гость!
Вы можете поддержать проект и зарегистрироваться у наших партнеров - онлайн-стратегия MyLands. При регистрации в игре Вы получите код, который сможете активировать после регистрации на pirat.ca и получить 1000 дублонов.

Ваш код:
e6008d9811a0b6a1393c3dc51ecd7bc35637bc21
 
     

Необыкновенное путешествие Серафимы (Сергей Антонов) [2015 г., мультфильм, фэнтези, приключения, WEB-DLRip] Original (RUS)(iTunes)

Ответить на тему
 
Автор
Сообщение

Пост 17-Сен-2015 08:39

[Q] 

aleksey99

--Необыкновенное путешествие Серафимы-- Производство: Россия, КиноАтис
Год выпуска: 2015 г.
Жанр: мультфильм, фэнтези, приключения
Продолжительность: 01:14:57--Премьера (РФ): 27 августа 2015, «Централ Партнершип»--Режиссер: Сергей Антонов--В ролях: Александр Михайлов, Алина Михайлова, Виктория Дробина, Вера Васильева, Анастасия Бартяева, Владимир Левашёв, Наталья Грачёва, Анна Волкова, Анна Мещан, Елена Кищик--Описание: Сима Воскресенская, лишившаяся родителей в самом начале войны, живет в детском доме и втайне хранит нашейный крест, напоминающий ей о любимой семье. Однажды Сима знакомится с Ритой — девочкой, которая открывает ей, что дом полон секретов и призраков, и предлагает ей отправиться в загадочную каморку под лестницей, чтобы посмотреть на одного из них. Кто бы мог подумать, что приглашение поможет Серафиме раскрыть тайну детского дома и пролить свет на судьбу родителей.-- --Качество видео: WEB-DLRip
Контейнер: AVI
Видео кодек: XviD
Аудио кодек: AC3
Видео: 720x400 (1.80:1), 24 fps, XviD build 50 ~2209 kbps avg, 0.32 bit/pixel
Аудио: 48 kHz, AC3 Dolby Digital, 3/2 (L,C,R,l,r) + LFE ch, ~384 kbps
Cубтитры: отсутствуют
Общее
Полное имя : F:\Torent 2\CePaF1ma.2015.O.WEB-DLRip.avi
Формат : AVI
Формат/Информация : Audio Video Interleave
Размер файла : 1,36 Гбайт
Продолжительность : 1 ч. 14 м.
Общий поток : 2603 Кбит/сек
Программа кодирования : VirtualDubMod 1.5.10.3 | www.virtualdub-fr.org || (build 2550/release)
Библиотека кодирования : VirtualDubMod build 2550/release
Видео
Идентификатор : 0
Формат : MPEG-4 Visual
Профиль формата : Advanced [email protected]
Параметр BVOP формата : 2
Параметр QPel формата : Нет
Параметр GMC формата : Без точки перехода
Параметр матрицы формата : Default (MPEG)
Идентификатор кодека : XVID
Идентификатор кодека/Подсказка : XviD
Продолжительность : 1 ч. 14 м.
Битрейт : 2210 Кбит/сек
Ширина : 720 пикселей
Высота : 400 пикселей
Соотношение сторон : 16:9
Частота кадров : 24,000 кадра/сек
Цветовое пространство : YUV
Субдискретизация насыщенности : 4:2:0
Битовая глубина : 8 бит
Тип развёртки : Прогрессивная
Метод сжатия : С потерями
Бит/(Пиксели*Кадры) : 0.320
Размер потока : 1,16 Гбайт (85%)
Библиотека кодирования : XviD 1.2.1 (UTC 2008-12-04)
Аудио
Идентификатор : 1
Формат : AC-3
Формат/Информация : Audio Coding 3
Расширение режима : CM (complete main)
Параметр Endianness формата : Big
Идентификатор кодека : 2000
Продолжительность : 1 ч. 14 м.
Вид битрейта : Постоянный
Битрейт : 384 Кбит/сек
Каналы : 6 каналов
Расположение каналов : Front: L C R, Side: L R, LFE
Частота : 48,0 КГц
Метод сжатия : С потерями
Размер потока : 206 Мбайт (15%)
Выравнивание : Разделение по промежуткам
Продолжительность промежутка : 42 мс. (1,00 видеокадр)
Время предзагрузки промежутка : 500 мс.
Трейлер
Download / Скачать

Хотите скачать бесплатно? Зарегистрируйтесь на сайте (ссылка на регистрацию). Pirat.ca - самый быстрый торрент трекер в рунете!

Как скачивать  ·   Что такое торрент  ·   Рейтинг и ограничения

zlotosalien

Флибустьер

Пост 17-Сен-2015 09:00 (спустя 20 минут)

[Q] 

Выглядит конечно красиво но, лучше подождать качества.
[Профиль]  [ЛС] 

Scull666

Шкипер

Пост 17-Сен-2015 09:57 (спустя 57 минут)

[Q] 

"при финансовой поддержке рпц"
[Профиль]  [ЛС] 

Раемия

Флибустьер

Пост 17-Сен-2015 15:12 (спустя 5 часов)

[Q] 

Кто-нибудь посмотрел мульт?Стоит качать?

_________________
Любите кроликов!!!…и они отплатят вам тем же…
[Профиль]  [ЛС] 

polozm

Легенда

Пост 17-Сен-2015 15:25 (спустя 12 минут)

[Q] 

Спасибо,мне очень понравился мульт aa

_________________
mac mini -2.0 GHz Intel Core i7/ 8 GB DDR3. /Intel HD 3000(512mb)OS X 10.9 Mavericks
[Профиль]  [ЛС] 

pz4

Корсар

79

Пост 18-Сен-2015 01:20 (спустя 9 часов)

[Q] 

Клуб аметистов же.

_________________
www.pirat.ca
[Профиль]  [ЛС] 

alexx2201

33

Пост 18-Сен-2015 10:12 (спустя 8 часов)

[Q] 

для ребенка возьму!! Лови бочку

_________________
Отпуск...внезапно
[Профиль]  [ЛС] 

Alex_cross

42

Пост 24-Сен-2015 20:04 (спустя 6 дней)

[Q] 

Ходили с детьми в кинотеатр, все очень понравилось.
Сюжет кстати очень жизненный, и довольно не детский.
Хорошая концовка, показано что если все заодно то начальство бессильно.
Супер!

_________________
За Веру, Царя и Отечество!
[Профиль]  [ЛС] 

platon18

Гроза морей

Пост 26-Сен-2015 10:28 (спустя 1 день 14 часов)

[Q] 

типа гарри поттера и потайной комнаты?
качну
[Профиль]  [ЛС] 

Пост 23-Окт-2015 22:16 (спустя 27 дней)

Топик был перенесен из форума Новинки (HD|DVD|BD| TV|SAT|PDTV| - Rips) в форум Отечественные полнометражные мультфильмы
aleksey99
 

lecsij

Штурман

Пост 14-Сен-2016 07:44 (спустя 11 месяцев 17 дней)

[Q] 

Лови бочку Мне понравилось
[Профиль]  [ЛС] 
Показать сообщения:    
Ответить на тему

Текущее время: Сегодня 02:04

Часовой пояс: GMT + 4



Вы не можете начинать темы
Вы не можете отвечать на сообщения
Вы не можете редактировать свои сообщения
Вы не можете удалять свои сообщения
Вы не можете голосовать в опросах
Вы не можете прикреплять файлы к сообщениям
Вы не можете скачивать файлы

▼ Вниз