ML
     
  Уважаемый Гость!
Вы можете поддержать проект и зарегистрироваться у наших партнеров - онлайн-стратегия MyLands. При регистрации в игре Вы получите код, который сможете активировать после регистрации на pirat.ca и получить 1000 дублонов.

Ваш код:
822959f93c00d34653763d5bbf9ee9a7134af98a
 
     

Богатырша (Ольга Лопато) [2016 г., мультфильм, BDRip, 720p]

Ответить на тему
 
Автор
Сообщение

Пост 08-Мар-2016 00:34

[Q] 

TERMOS

Легенда

-Богатырша
«Самый сказочный блокбастер Нового года»
-- Производство: Россия
Режиссер: Ольга Лопато
Жанр: мультфильм
Год выпуска: 2016 г.
Продолжительность: 01:15:52
Перевод: Не требуется
Роли озвучивали: Анна Хилькевич, Алексей Чумаков, Гарик Харламов, Тимур Батрутдинов, Михаил Пореченков, Алёна Бабенко, Борис Щербаков, Мирослава Карпович, Армен Джигарханян, Василиса Эльдарова-Описание: …И было предсказание славному витязю Бориполку, что у него родится сын, который станет великим воином и спасет Русь от великой напасти. Но, как всегда, все вышло наоборот: у героя родилась… дочка. А спасения Руси никто не отменял. И как сражаться с врагом, когда у него три головы, и каждая со своими выкрутасами?
- - -Качество видео: BDRip
Источник: Богатырша 2016 Blu-ray RUS 1080i AVC DTS-HD MA 5.1-HDCLUB
Контейнер: MKV
Стандарт разрешения: 720p
Видео кодек: H.264/AVC
Аудио кодек: DTS
Видео: 1280x536 at 23.976 fps, ~5735 kbps avg
Аудио: Russian: 48 kHz, DTS, 3/2 (L,C,R,l,r) + LFE ch, ~1536.00 kbps avg
Cубтитры: отсутствуют
Код:
Format                      : Matroska
Format version              : Version 2
File size                   : 3.92 GiB
Duration                    : 1h 15mn
Overall bit rate            : 7 391 Kbps
Movie name                  : Bogatyrsha (2016) - Release for HDCLUB
Encoded date                : UTC 2016-03-06 22:02:22
Writing application         : mkvmerge v3.4.0 ('Rapunzel') built on May 15 2010 09:38:20
Writing library             : libebml v0.8.0 + libmatroska v0.9.0
Video
ID                          : 1
Format                      : AVC
Format/Info                 : Advanced Video Codec
Format profile              : [email protected]
Format settings, CABAC      : Yes
Format settings, ReFrames   : 12 frames
Codec ID                    : V_MPEG4/ISO/AVC
Duration                    : 1h 15mn
Bit rate                    : 5 735 Kbps
Width                       : 1 280 pixels
Height                      : 536 pixels
Display aspect ratio        : 2.40:1
Frame rate mode             : Constant
Frame rate                  : 25.000 fps
Color space                 : YUV
Chroma subsampling          : 4:2:0
Bit depth                   : 8 bits
Scan type                   : Progressive
Bits/(Pixel*Frame)          : 0.334
Stream size                 : 3.04 GiB (78%)
Title                       : Bogatyrsha (2016) - Release for HDCLUB
Writing library             : x264 core 142 r2431+42 c69a006 tMod [[email protected] X86_64]
Encoding settings           : cabac=1 / ref=12 / deblock=1:-3:-3 / analyse=0x3:0x133 / me=umh / subme=11 / psy=1 / fade_compensate=0.00 / psy_rd=1.00:0.00 / mixed_ref=1 / me_range=48 / chroma_me=1 / trellis=2 / 8x8dct=1 / cqm=0 / deadzone=21,11 / fast_pskip=0 / chroma_qp_offset=-2 / threads=18 / lookahead_threads=3 / sliced_threads=0 / nr=0 / decimate=1 / interlaced=0 / bluray_compat=0 / constrained_intra=0 / fgo=0 / bframes=8 / b_pyramid=2 / b_adapt=2 / b_bias=0 / direct=1 / weightb=1 / open_gop=0 / weightp=2 / keyint=240 / keyint_min=24 / scenecut=40 / intra_refresh=0 / rc_lookahead=60 / rc=crf / mbtree=0 / crf=16.5000 / qcomp=0.60 / qpmin=0:0:0 / qpmax=69:69:69 / qpstep=4 / vbv_maxrate=50000 / vbv_bufsize=62500 / crf_max=0.0 / nal_hrd=none / filler=0 / ip_ratio=1.35 / pb_ratio=1.25 / aq=1:0.80 / aq-sensitivity=10.00 / aq-factor=1.00:1.00:1.00 / aq2=0 / aq3=0
Language                    : Russian
Default                     : Yes
Forced                      : No
Audio
ID                          : 2
Format                      : DTS
Format/Info                 : Digital Theater Systems
Mode                        : 16
Format settings, Endianness : Big
Codec ID                    : A_DTS
Duration                    : 1h 15mn
Bit rate mode               : Constant
Bit rate                    : 1 509 Kbps
Channel(s)                  : 6 channels
Channel positions           : Front: L C R, Side: L R, LFE
Sampling rate               : 48.0 KHz
Bit depth                   : 24 bits
Compression mode            : Lossy
Stream size                 : 819 MiB (20%)
Title                       : DTS 5.1 @ 1536 kbps
Language                    : Russian
Default                     : Yes
Forced                      : No
Menu
00:00:00.000                : ru:
00:01:14.720                : ru:
00:09:19.160                : ru:
00:19:57.280                : ru:
00:29:22.400                : ru:
00:36:22.720                : ru:
00:49:29.040                : ru:
00:55:15.920                : ru:
01:04:41.560                : ru:
Download / Скачать

Хотите скачать бесплатно? Зарегистрируйтесь на сайте (ссылка на регистрацию). Pirat.ca - самый быстрый торрент трекер в рунете!

Как скачивать  ·   Что такое торрент  ·   Рейтинг и ограничения

somik

Легенда

26975

Пост 08-Мар-2016 00:59 (спустя 24 минуты)

[Q] 

Смотрели... Кстати понравился всей семье больше чем драгоценный Фадеевский "Савва". Всем качать!!!

_________________
Всё когда-нибудь уже было... В интернете!
[Профиль]  [ЛС] 

Пост 08-Мар-2016 02:28 (спустя 1 час 29 минут)

Топик был перенесен из форума Мультфильмы (Трюм) в форум Отечественные полнометражные мультфильмы
Андря
 

sergey718

Корсар

Пост 08-Мар-2016 06:01 (спустя 5 часов)

[Q] 

Посмотрим. Может что то хорошее?
[Профиль]  [ЛС] 

valeryz777

Гроза морей

896

Пост 08-Мар-2016 10:13 (спустя 4 часа)

[Q] 


_________________
«Festina lente» что означает «Поспешай медленно»
[Профиль]  [ЛС] 

Alexlogin

Гроза морей

105

Пост 08-Мар-2016 17:48 (спустя 7 часов)

[Q] 

Спасибо забираю
[Профиль]  [ЛС] 

teriv

Морской Волк

30

Пост 04-Апр-2016 19:41 (спустя 27 дней)

[Q] 

Топик стартеру спасибо за труды. В мультике графика ремён начала 3D графики, движения не естественные, озвучка тоже не айс, в общем складывается впечатление что халтурка какая то для освоения бюджетных денег. Сюжет никакой, сильно высосаны из пальца на угоду моды от гнусавых, опять баба спасает мир, спрашивается чем остается заниматься мужику, рожать не умеет придется спиваться. В общем халтура, но до конца досмотрели с ребенком 8 лет.

_________________
[Профиль]  [ЛС] 
Показать сообщения:    
Ответить на тему

Текущее время: Сегодня 05:55

Часовой пояс: GMT + 4



Вы не можете начинать темы
Вы не можете отвечать на сообщения
Вы не можете редактировать свои сообщения
Вы не можете удалять свои сообщения
Вы не можете голосовать в опросах
Вы не можете прикреплять файлы к сообщениям
Вы не можете скачивать файлы

▼ Вниз