ML
     
  Уважаемый Гость!
Вы можете поддержать проект и зарегистрироваться у наших партнеров - онлайн-стратегия MyLands. При регистрации в игре Вы получите код, который сможете активировать после регистрации на pirat.ca и получить 1000 дублонов.

Ваш код:
822959f93c00d34653763d5bbf9ee9a7134af98a
 
     

Крякнутые каникулы (Виктор Лакисов) [2015 г., мультфильм, комедия, приключения, семейный, WEB-DLRip] Original (RUS)

Ответить на тему
 
Автор
Сообщение

Пост 27-Мар-2016 21:45

[Q] 

aleksey99

--Крякнутые каникулы-- Производство: Россия, Animation Studio RIM, Asymmetric VFX
Год выпуска: 2015 г.
Жанр: мультфильм, комедия, приключения, семейный
Продолжительность: 01:21:43--Мировая премьера: 30 марта 2016
Российская премьера: 18 февраля 2016, «Каропрокат»--Режиссер: Виктор Лакисов--В ролях: Никита Пресняков, Владимир Пресняков мл., Эвелина Блёданс, Полина Максимова, Александр Головин, Всеволод Кузнецов, Борис Токарев, Станислав Стрелков, Елена Шульман, Михаил Лукашов--Описание: Перелётные кряквы из России, решившие провести свой отдых на Гавайях, сбиваются с пути и приземляются на китайский остров, на котором живут утки-мандаринки. Между двумя стаями возникает много смешных и курьёзных ситуаций. Пока отцы дерутся и спорят, Ник, сын императора мандаринок и Ариша, дочь командира русских крякв, знакомятся и становятся друзьями. Дети должны объединить мандаринок и крякв и победить Ведьму Марго, которая хочет погубить солнце.-- --Качество видео: WEB-DLRip
Контейнер: AVI
Видео кодек: XviD
Аудио кодек: AC3
Видео: 720x400 (1.80:1), 24.000 fps, XviD build 50 ~1937 kbps avg, 0.28 bit/pixel
Аудио: 48 kHz, AC3 Dolby Digital, 2/0 (L,R) ch, ~448 kbps
Cубтитры: отсутствуют
Общее
Полное имя : H:\Torrent2\Kryaknytue.kanikuly.2016.O.WEBDLRip.avi
Формат : AVI
Формат/Информация : Audio Video Interleave
Размер файла : 1,37 Гбайт
Продолжительность : 1 ч. 21 м.
Общий поток : 2395 Кбит/сек
Программа кодирования : VirtualDubMod 1.5.10.3 | www.virtualdub-fr.org || (build 2550/release)
Библиотека кодирования : VirtualDubMod build 2550/release
Видео
Идентификатор : 0
Формат : MPEG-4 Visual
Профиль формата : Advanced [email protected]
Параметр BVOP формата : 2
Параметр QPel формата : Нет
Параметр GMC формата : Без точки перехода
Параметр матрицы формата : Default (MPEG)
Идентификатор кодека : XVID
Идентификатор кодека/Подсказка : XviD
Продолжительность : 1 ч. 21 м.
Битрейт : 1937 Кбит/сек
Ширина : 720 пикселей
Высота : 400 пикселей
Соотношение сторон : 16:9
Частота кадров : 24,000 кадра/сек
Цветовое пространство : YUV
Субдискретизация насыщенности : 4:2:0
Битовая глубина : 8 бит
Тип развёртки : Прогрессивная
Метод сжатия : С потерями
Бит/(Пиксели*Кадры) : 0.280
Размер потока : 1,11 Гбайт (81%)
Библиотека кодирования : XviD 1.2.1 (UTC 2008-12-04)
Аудио
Идентификатор : 1
Формат : AC-3
Формат/Информация : Audio Coding 3
Расширение режима : CM (complete main)
Параметр Endianness формата : Big
Идентификатор кодека : 2000
Продолжительность : 1 ч. 21 м.
Вид битрейта : Постоянный
Битрейт : 448 Кбит/сек
Каналы : 2 канала
Расположение каналов : Front: L R
Частота : 48,0 КГц
Битовая глубина : 16 бит
Метод сжатия : С потерями
Размер потока : 262 Мбайт (19%)
Выравнивание : Разделение по промежуткам
Продолжительность промежутка : 42 мс. (1,00 видеокадр)
Время предзагрузки промежутка : 500 мс.
Трейлер
Download / Скачать

Хотите скачать бесплатно? Зарегистрируйтесь на сайте (ссылка на регистрацию). Pirat.ca - самый быстрый торрент трекер в рунете!

Как скачивать  ·   Что такое торрент  ·   Рейтинг и ограничения

fishman

Корсар

Пост 28-Мар-2016 00:06 (спустя 2 часа 20 минут)

[Q] 

Заценим cs
Лови бочку

_________________
|___|___|___|___|___|___|___|__|__
__|__|__|_Биться головой_|___|___|
|___|___|___|__сюда!!___|___|__|__
__|___|___|___|___|___|___|__|__
[Профиль]  [ЛС] 

Skat.56

Гроза морей

448

Пост 30-Мар-2016 22:14 (спустя 2 дня 22 часа)

[Q] 

Классный мультик))) Сам с удовольствием посмотрел!
[Профиль]  [ЛС] 

olmed

Корсар

Пост 04-Апр-2016 12:26 (спустя 4 дня)

[Q] 

Спасибо!!! Супер!
[Профиль]  [ЛС] 

Cjey

Шкипер

Пост 06-Апр-2016 23:33 (спустя 2 дня 11 часов)

[Q] 

спасибо Спасибо!!!
[Профиль]  [ЛС] 

Пост 04-Май-2016 21:43 (спустя 27 дней)

Топик был перенесен из форума Новинки (HD|DVD|BD| TV|SAT|PDTV| - Rips) в форум Отечественные полнометражные мультфильмы
aleksey99
 

my1979

Корсар

Пост 29-Июл-2016 09:52 (спустя 3 месяца 22 дня)

[Q] 

а нам как-то не очень понравился мульт
[Профиль]  [ЛС] 

Ливень

Корсар

Пост 25-Авг-2016 22:35 (спустя 27 дней)

[Q] 

Даже комментировать не хочется... Ой как стыдно-то...
[Профиль]  [ЛС] 
Показать сообщения:    
Ответить на тему

Текущее время: Сегодня 05:58

Часовой пояс: GMT + 4



Вы не можете начинать темы
Вы не можете отвечать на сообщения
Вы не можете редактировать свои сообщения
Вы не можете удалять свои сообщения
Вы не можете голосовать в опросах
Вы не можете прикреплять файлы к сообщениям
Вы не можете скачивать файлы

▼ Вниз