ML
     
  Уважаемый Гость!
Вы можете поддержать проект и зарегистрироваться у наших партнеров - онлайн-стратегия MyLands. При регистрации в игре Вы получите код, который сможете активировать после регистрации на pirat.ca и получить 1000 дублонов.

Ваш код:
f612af22ea70acf5cbe90707ac5a076d215f8f7f
 
     

Волки и овцы: бе-е-е-зумное превращение (Максим Волков, Андрей Галат) [2016 г., мультфильм, семейный, комедия, приключения, WEB-DLRip] Original (RUS) [iTunes]

Ответить на тему
 
Автор
Сообщение

Пост 18-Май-2016 08:22

[Q] 

aleksey99

--Волки и овцы: бе-е-е-зумное превращение--«Ты можешь быть кем угодно. Главное – оставаться собой!»-- Производство: Россия, Кинокомпания CTB, Wizart Animation
Год выпуска: 2016 г.
Жанр: мультфильм, семейный, комедия, приключения
Продолжительность: 01:24:42--Мировая премьера: 22 апреля 2016
Российская премьера: 28 апреля 2016, «Наше Кино»--Режиссер: Максим Волков, Андрей Галат--В ролях: Александр Петров, Елизавета Боярская, Сергей Безруков, Екатерина Иванчикова, Юрий Гальцев, Андрей Рожков, Татьяна Шитова, Диомид Виноградов, Андрей Бархударов, Дмитрий Филимонов--Описание: Любимцу стаи, молодому и беззаботному волку Серому невдомек, что скоро он окажется чужим среди своих друзей. Претендуя на роль вожака стаи и на руку (вернее, лапу) и сердце самой красивой волчицы Бьянки, Серый продолжает дурачиться и устраивать розыгрыши над сородичами. Все переворачивается с ног на голову, когда он решает изменить себя с помощью волшебного зелья. Чудо действительно происходит: Серый превращается в барана! Опасаясь за свою, теперь овечью, шкуру, Серый сбегает от волков и поселяется в деревне овец.
Теперь Серому предстоит не только вернуть доверие возлюбленной и стаи, но и свой прежний облик. Но как это сделать, если у тебя есть всего три дня, да еще рога и копыта?-- --Качество видео: WEB-DLRip
Контейнер: AVI
Видео кодек: XviD
Аудио кодек: AC3
Видео: 720x304 (2.37:1), 24 fps, XviD build 50 ~1916 kbps avg, 0.36 bit/pixel
Аудио: 48 kHz, AC3 Dolby Digital, 3/2 (L,C,R,l,r) + LFE ch, ~384 kbps
Cубтитры: отсутствуют
Общее
Полное имя : H:\Torrent2\Vikk.I.OVTsa.2O16.D.WEB-DLRip.1400MB.avi
Формат : AVI
Формат/Информация : Audio Video Interleave
Размер файла : 1,37 Гбайт
Продолжительность : 1 ч. 24 м.
Общий поток : 2310 Кбит/сек
Программа кодирования : VirtualDubMod 1.5.10.2 (build 2540/release)
Библиотека кодирования : VirtualDubMod build 2540/release
Видео
Идентификатор : 0
Формат : MPEG-4 Visual
Профиль формата : Advanced [email protected]
Параметр BVOP формата : 2
Параметр QPel формата : Нет
Параметр GMC формата : Без точки перехода
Параметр матрицы формата : Default (MPEG)
Идентификатор кодека : XVID
Идентификатор кодека/Подсказка : XviD
Продолжительность : 1 ч. 24 м.
Битрейт : 1917 Кбит/сек
Ширина : 720 пикселей
Высота : 304 пикселя
Соотношение сторон : 2,35:1
Частота кадров : 24,000 кадра/сек
Цветовое пространство : YUV
Субдискретизация насыщенности : 4:2:0
Битовая глубина : 8 бит
Тип развёртки : Прогрессивная
Метод сжатия : С потерями
Бит/(Пиксели*Кадры) : 0.365
Размер потока : 1,13 Гбайт (83%)
Библиотека кодирования : XviD 1.2.1 (UTC 2008-12-04)
Аудио
Идентификатор : 1
Формат : AC-3
Формат/Информация : Audio Coding 3
Расширение режима : CM (complete main)
Параметр Endianness формата : Big
Идентификатор кодека : 2000
Продолжительность : 1 ч. 24 м.
Вид битрейта : Постоянный
Битрейт : 384 Кбит/сек
Каналы : 6 каналов
Расположение каналов : Front: L C R, Side: L R, LFE
Частота : 48,0 КГц
Частота кадров : 31,250 кадров/сек (1536 spf)
Метод сжатия : С потерями
Размер потока : 233 Мбайт (17%)
Выравнивание : Разделение по промежуткам
Продолжительность промежутка : 42 мс. (1,00 видеокадр)
Время предзагрузки промежутка : 500 мс.
Трейлер
Download / Скачать

Хотите скачать бесплатно? Зарегистрируйтесь на сайте (ссылка на регистрацию). Pirat.ca - самый быстрый торрент трекер в рунете!

Как скачивать  ·   Что такое торрент  ·   Рейтинг и ограничения

Пост 24-Июн-2016 21:33 (спустя 1 месяц 6 дней)

Топик был перенесен из форума Новинки (HD|DVD|BD| TV|SAT|PDTV| - Rips) в форум Отечественные полнометражные мультфильмы
aleksey99
 
Показать сообщения:    
Ответить на тему

Текущее время: Сегодня 00:28

Часовой пояс: GMT + 4



Вы не можете начинать темы
Вы не можете отвечать на сообщения
Вы не можете редактировать свои сообщения
Вы не можете удалять свои сообщения
Вы не можете голосовать в опросах
Вы не можете прикреплять файлы к сообщениям
Вы не можете скачивать файлы

▼ Вниз