ML
     
  Уважаемый Гость!
Вы можете поддержать проект и зарегистрироваться у наших партнеров - онлайн-стратегия MyLands. При регистрации в игре Вы получите код, который сможете активировать после регистрации на pirat.ca и получить 1000 дублонов.

Ваш код:
9cfe162481db953a6549f32179d7b3900b8b8643
 
     

Волки и овцы: бе-е-е-зумное превращение (Максим Волков, Андрей Галат) [2016 г., мультфильм, семейный, комедия, приключения, WEB-DLRip-AVC] Original (RUS) [iTunes]

Ответить на тему
 
Автор
Сообщение

Пост 18-Май-2016 16:51

[Q] 

aleksey99

--Волки и овцы: бе-е-е-зумное превращение--«Ты можешь быть кем угодно. Главное – оставаться собой!»-- Производство: Россия, Кинокомпания CTB, Wizart Animation
Год выпуска: 2016 г.
Жанр: мультфильм, семейный, комедия, приключения
Продолжительность: 01:24:42--Мировая премьера: 22 апреля 2016
Российская премьера: 28 апреля 2016, «Наше Кино»--Режиссер: Максим Волков, Андрей Галат--В ролях: Александр Петров, Елизавета Боярская, Сергей Безруков, Екатерина Иванчикова, Юрий Гальцев, Андрей Рожков, Татьяна Шитова, Диомид Виноградов, Андрей Бархударов, Дмитрий Филимонов--Описание: Любимцу стаи, молодому и беззаботному волку Серому невдомек, что скоро он окажется чужим среди своих друзей. Претендуя на роль вожака стаи и на руку (вернее, лапу) и сердце самой красивой волчицы Бьянки, Серый продолжает дурачиться и устраивать розыгрыши над сородичами. Все переворачивается с ног на голову, когда он решает изменить себя с помощью волшебного зелья. Чудо действительно происходит: Серый превращается в барана! Опасаясь за свою, теперь овечью, шкуру, Серый сбегает от волков и поселяется в деревне овец.
Теперь Серому предстоит не только вернуть доверие возлюбленной и стаи, но и свой прежний облик. Но как это сделать, если у тебя есть всего три дня, да еще рога и копыта?-- --Качество видео: WEB-DLRip-AVC
Контейнер: MKV
Видео кодек: H.264
Аудио кодек: AC3
Видео: AVC at 2079 Кбит/сек, 1046x438 at 24,000 fps
Аудио: 48 kHz, AC3 Dolby Digital, 3/2 (L,C,R,l,r) + LFE ch, ~384 kbps
Cубтитры: отсутствуют
Общее
Уникальный идентификатор : 196218196668211029961303115372718309287 (0x939E4003E98D40F7B030668AFE59BFA7)
Полное имя : H:\Torrent2\Volki.i.ovcy.bezumnoe.prevrashhenie.2016.WEB-DLRip-AVC.1.45Gb.mkv
Формат : Matroska
Версия формата : Version 4 / Version 2
Размер файла : 1,46 Гбайт
Продолжительность : 1 ч. 24 м.
Общий поток : 2463 Кбит/сек
Дата кодирования : UTC 2016-05-18 12:36:06
Программа кодирования : mkvmerge v9.0.1 ('Obstacles') 64bit
Библиотека кодирования : libebml v1.3.3 + libmatroska v1.4.4
Видео
Идентификатор : 1
Формат : AVC
Формат/Информация : Advanced Video Codec
Профиль формата : [email protected]
Параметр CABAC формата : Да
Параметр ReFrames формата : 14 кадров
Идентификатор кодека : V_MPEG4/ISO/AVC
Продолжительность : 1 ч. 24 м.
Битрейт : 2079 Кбит/сек
Ширина : 1046 пикселей
Высота : 438 пикселей
Соотношение сторон : 2,40:1
Соотношение сторон в оригинале : 2,40:1
Режим частоты кадров : Постоянный
Частота кадров : 24,000 кадра/сек
Цветовое пространство : YUV
Субдискретизация насыщенности : 4:2:0
Битовая глубина : 8 бит
Тип развёртки : Прогрессивная
Бит/(Пиксели*Кадры) : 0.189
Размер потока : 1,23 Гбайт (84%)
Библиотека кодирования : x264 core 148 r2665kMod a01e339
Настройки программы : cabac=1 / ref=14 / deblock=1:-3:-2 / analyse=0x3:0x133 / me=umh / subme=10 / psy=1 / fade_compensate=0.00 / psy_rd=1.00:0.00 / mixed_ref=1 / me_range=32 / chroma_me=1 / trellis=2 / 8x8dct=1 / cqm=0 / deadzone=21,11 / fast_pskip=0 / chroma_qp_offset=-2 / threads=12 / lookahead_threads=3 / sliced_threads=0 / nr=0 / decimate=0 / interlaced=0 / bluray_compat=0 / constrained_intra=0 / fgo=0 / bframes=14 / b_pyramid=2 / b_adapt=2 / b_bias=0 / direct=3 / weightb=1 / open_gop=0 / weightp=2 / keyint=240 / keyint_min=23 / scenecut=40 / intra_refresh=0 / rc_lookahead=60 / rc=2pass / mbtree=0 / bitrate=2079 / ratetol=1.0 / qcomp=0.65 / qpmin=0 / qpmax=69 / qpstep=4 / cplxblur=20.0 / qblur=0.5 / vbv_maxrate=50000 / vbv_bufsize=62500 / nal_hrd=none / filler=0 / ip_ratio=1.30 / pb_ratio=1.25 / aq=1:0.80
Default : Да
Forced : Нет
Аудио
Идентификатор : 2
Формат : AC-3
Формат/Информация : Audio Coding 3
Расширение режима : CM (complete main)
Параметр Endianness формата : Big
Идентификатор кодека : A_AC3
Продолжительность : 1 ч. 24 м.
Вид битрейта : Постоянный
Битрейт : 384 Кбит/сек
Каналы : 6 каналов
Расположение каналов : Front: L C R, Side: L R, LFE
Частота : 48,0 КГц
Частота кадров : 31,250 кадров/сек (1536 spf)
Метод сжатия : С потерями
Размер потока : 233 Мбайт (16%)
Заголовок : DD 5.1 @ 384 kbps - iTunes
Язык : Russian
Default : Да
Forced : Нет
Меню
00:00:00.000 : en:Глава 1
00:07:15.583 : en:Глава 2
00:12:27.833 : en:Глава 3
00:20:15.791 : en:Глава 4
00:26:23.791 : en:Глава 5
00:31:57.166 : en:Глава 6
00:38:49.082 : en:Глава 7
00:44:24.957 : en:Глава 8
00:50:30.540 : en:Глава 9
00:56:20.790 : en:Глава 10
01:02:49.081 : en:Глава 11
01:09:37.581 : en:Глава 12
01:16:37.831 : en:Глава 13
Трейлер
Download / Скачать

Хотите скачать бесплатно? Зарегистрируйтесь на сайте (ссылка на регистрацию). Pirat.ca - самый быстрый торрент трекер в рунете!

Как скачивать  ·   Что такое торрент  ·   Рейтинг и ограничения

CMTA

Штурман

Пост 18-Май-2016 17:44 (спустя 52 минуты)

[Q] 

Забираю и помогаю. Спасибо!
[Профиль]  [ЛС] 

Vorontsova.Olha

Морской Волк

Пост 18-Май-2016 18:46 (спустя 1 час 2 минуты)

[Q] 

Спасибо!!! поддержу

_________________
[Профиль]  [ЛС] 

bolin

Флибустьер

Пост 18-Май-2016 21:05 (спустя 2 часа 18 минут)

[Q] 

Спасибо!Забираю малышам!
[Профиль]  [ЛС] 

Doctor-ZLO

Гроза морей

438

Пост 18-Май-2016 21:31 (спустя 26 минут)

[Q] 

Спасибо, ребенок глянет.

_________________
[Профиль]  [ЛС] 

ss80

Флибустьер

36

Пост 18-Май-2016 22:22 (спустя 50 минут)

[Q] 

Спасибо!!! Супер!
[Профиль]  [ЛС] 

Maks_e

Корсар

69

Пост 19-Май-2016 09:50 (спустя 11 часов)

[Q] 

Спасибо!!!
[Профиль]  [ЛС] 

Prorok155

Корсар

Пост 19-Май-2016 17:05 (спустя 7 часов)

[Q] 

Спасибо. Раздающему респект!
[Профиль]  [ЛС] 

nexoo

Корсар

Пост 20-Май-2016 15:20 (спустя 22 часа)

[Q] 

Спасибо за раздачу! Кто посмотрел скажите как качество?
[Профиль]  [ЛС] 

salavat1234

Гроза морей

Пост 20-Май-2016 21:41 (спустя 6 часов)

[Q] 

Автору респект!!! Лови бочку
[Профиль]  [ЛС] 

Ros

Штурман

Пост 20-Май-2016 23:36 (спустя 1 час 55 минут)

[Q] 

В конце волки станут педо-веганами или всё таки всё закончится логичным шашлычком?
[Профиль]  [ЛС] 

evgol

Штурман

Пост 21-Май-2016 10:20 (спустя 10 часов)

[Q] 

Посмотрим, мультиков давно не было Спасибо!!!
[Профиль]  [ЛС] 

Barmeno

Шкипер

Пост 21-Май-2016 10:24 (спустя 4 минуты)

[Q] 

не мультик, а кусок *овна..
[Профиль]  [ЛС] 

nexoo

Корсар

Пост 26-Май-2016 09:23 (спустя 4 дня)

[Q] 

Спасибо за раздачу. Качество нормальное и звук хороший. Сюжет уже по личному вкусу. Детям понравилось. Для них же нарисовали.
[Профиль]  [ЛС] 

progr33

Шкипер

Пост 10-Июн-2016 15:10 (спустя 15 дней)

[Q] 

Лови бочку Спасибо !COOL!
[Профиль]  [ЛС] 

li_stitch

Корсар

Пост 11-Июн-2016 00:55 (спустя 9 часов)

[Q] 

Автору респект!!!
[Профиль]  [ЛС] 

Пост 24-Июн-2016 21:32 (спустя 13 дней)

Топик был перенесен из форума Новинки (HD|DVD|BD| TV|SAT|PDTV| - Rips) в форум Отечественные полнометражные мультфильмы
aleksey99
 

lexaspirit

Пост 01-Авг-2016 23:59 (спустя 1 месяц 21 день)

[Q] 

Хороший, добрый мульт. Смотреть можно

_________________
-------------------- ----------------------
[Профиль]  [ЛС] 

ossipoff

Корсар

Пост 18-Ноя-2016 09:37 (спустя 3 месяца 16 дней)

[Q] 

Спасибо, будем посмотреть )))
[Профиль]  [ЛС] 
Показать сообщения:    
Ответить на тему

Текущее время: Сегодня 06:02

Часовой пояс: GMT + 4



Вы не можете начинать темы
Вы не можете отвечать на сообщения
Вы не можете редактировать свои сообщения
Вы не можете удалять свои сообщения
Вы не можете голосовать в опросах
Вы не можете прикреплять файлы к сообщениям
Вы не можете скачивать файлы

▼ Вниз