ML
     
  Уважаемый Гость!
Вы можете поддержать проект и зарегистрироваться у наших партнеров - онлайн-стратегия MyLands. При регистрации в игре Вы получите код, который сможете активировать после регистрации на pirat.ca и получить 1000 дублонов.

Ваш код:
e93cd9e43017f251127f220889864c05934e61c6
 
     

Смешарики. Легенда о золотом драконе (Денис Чернов) [2016 г., мультфильм, приключения, комедия, BDRip-AVC] [Лицензия]

Ответить на тему
 
Автор
Сообщение

Пост 10-Июн-2016 00:15

[Q] 

ara1205

-Смешарики. Легенда о золотом драконе-- Производство: Россия
Год выпуска: 2016 г.
Жанр: мультфильм, приключения, комедия
Продолжительность: 01:20:15
Российская премьера: 17 марта 2016
Оригинальный аудиопоток: русский-Режиссер: Денис Чернов-Роли озвучивали: Михаил Черняк, Сергей Мардарь, Антон Виноградов, Владимир Постников, Светлана Письмиченко, Вадим Бочанов, Гарик Харламов, Дмитрий Нагиев, Елена Шульман, Владимир Маслаков-Описание: Выдающийся учёный и его команда отправляются в самое сердце диких джунглей, где их ждут опасные приключения, свирепые туземцы и расхитители гробниц, до зубов вооруженные гаджетами.- -Качество видео: BDRip-AVC
Контейнер: MKV
Видео кодек: H.264
Аудио кодек: AC3
Видео: 960x402, 23.976 fps, 2160 kbps avg, 0.233 bit/pixel
Аудио: 48 kHz, AC3 Dolby Digital, 3/2 (L,C,R,l,r) + LFE ch, ~448 kbps
Cубтитры: отсутствуют-
Общее
Уникальный идентификатор : 199360930226251496424858260300552646544 (0x95FB84BE24CC1F7BBD258B5CF1E2AF90)
Полное имя : C:\Users\Roman\Pictures\Смешарики\Новая папка\Smeshariki. Legenda o zolotom drakone.(2016).[pirat.ca].mkv
Формат : Matroska
Версия формата : Version 2
Размер файла : 1,46 Гбайт
Продолжительность : 1 ч. 20 м.
Общий поток : 2609 Кбит/сек
Название фильма : Smeshariki. Legenda o zolotom drakone.(2016).BDRip-AVC.[denis100]
Дата кодирования : UTC 2016-05-28 16:21:59
Программа кодирования : mkvmerge v5.8.0 ('No Sleep / Pillow') built on Sep 2 2012 15:37:04
Библиотека кодирования : libebml v1.2.3 + libmatroska v1.3.0
Видео
Идентификатор : 1
Формат : AVC
Формат/Информация : Advanced Video Codec
Профиль формата : [email protected]
Параметр CABAC формата : Да
Параметр ReFrames формата : 11 кадров
Идентификатор кодека : V_MPEG4/ISO/AVC
Продолжительность : 1 ч. 20 м.
Битрейт : 2160 Кбит/сек
Ширина : 960 пикселей
Высота : 402 пикселя
Соотношение сторон : 2,40:1
Режим частоты кадров : Постоянный
Частота кадров : 23,976 кадра/сек
Цветовое пространство : YUV
Субдискретизация насыщенности : 4:2:0
Битовая глубина : 8 бит
Тип развёртки : Прогрессивная
Бит/(Пиксели*Кадры) : 0.233
Размер потока : 1,18 Гбайт (81%)
Заголовок : Smeshariki. Legenda o zolotom drakone.(2016).BDRip-AVC.[denis100]
Библиотека кодирования : x264 core 148 r2692 64f4e24
Настройки программы : cabac=1 / ref=11 / deblock=1:0:0 / analyse=0x3:0x133 / me=umh / subme=11 / psy=1 / psy_rd=1.00:0.00 / mixed_ref=1 / me_range=32 / chroma_me=1 / trellis=2 / 8x8dct=1 / cqm=0 / deadzone=21,11 / fast_pskip=0 / chroma_qp_offset=-2 / threads=6 / lookahead_threads=1 / sliced_threads=0 / nr=0 / decimate=1 / interlaced=0 / bluray_compat=0 / constrained_intra=0 / bframes=9 / b_pyramid=2 / b_adapt=2 / b_bias=0 / direct=3 / weightb=1 / open_gop=0 / weightp=2 / keyint=240 / keyint_min=23 / scenecut=40 / intra_refresh=0 / rc=2pass / mbtree=0 / bitrate=2160 / ratetol=1.0 / qcomp=0.60 / qpmin=0 / qpmax=69 / qpstep=4 / cplxblur=20.0 / qblur=0.5 / ip_ratio=1.40 / pb_ratio=1.30 / aq=1:1.00
Язык : English
Default : Да
Forced : Нет
Аудио
Идентификатор : 2
Формат : AC-3
Формат/Информация : Audio Coding 3
Расширение режима : CM (complete main)
Параметр Endianness формата : Big
Идентификатор кодека : A_AC3
Продолжительность : 1 ч. 20 м.
Вид битрейта : Постоянный
Битрейт : 448 Кбит/сек
Каналы : 6 каналов
Расположение каналов : Front: L C R, Side: L R, LFE
Частота : 48,0 КГц
Битовая глубина : 16 бит
Метод сжатия : С потерями
Размер потока : 257 Мбайт (17%)
Язык : Russian
Default : Да
Forced : Нет
Меню
00:00:00.000 : en:Chapter 01
00:11:51.961 : en:Chapter 02
00:20:18.634 : en:Chapter 03
00:30:19.567 : en:Chapter 04
00:39:01.839 : en:Chapter 05
00:50:24.021 : en:Chapter 06
00:59:05.833 : en:Chapter 07
01:09:52.479 : en:Chapter 08
-
-
-
Download / Скачать

Хотите скачать бесплатно? Зарегистрируйтесь на сайте (ссылка на регистрацию). Pirat.ca - самый быстрый торрент трекер в рунете!

Как скачивать  ·   Что такое торрент  ·   Рейтинг и ограничения

MATRICA93

Штурман

Пост 10-Июн-2016 09:40 (спустя 9 часов)

[Q] 

Спасибо!! Посмотрим!)
[Профиль]  [ЛС] 

Maks_e

Корсар

69

Пост 10-Июн-2016 12:20 (спустя 2 часа 40 минут)

[Q] 

Спасибо!!!
[Профиль]  [ЛС] 

somik

Легенда

26680

Пост 10-Июн-2016 14:48 (спустя 2 часа 28 минут)

[Q] 

Рецензент писал: "...На мой взгляд пора придумывать новый рейтинг отдельно для мультфильмов — лицам после 18 просмотр нежелателен или запрещен. Ну не поймут эти взрослые таких добрых, очаровательных, юмористических и просто милых мультфильмов про Смешариков, Лунтиков, Машу и Медведя и т. д. Мне 32 года, и я смотрю эти мультфильмы (ну кроме Лунтика, конечно) с удовольствием. Просмотрев пару 2D серий я понял то что в каждой серии (да и вообще в каждом мультфильме) протянута тонкая философская нотка, про которую обязательно надо говорить детям. Детей у меня, нет но чтобы расслабится Смешарики — это то что нужно..."
Знаете, ребята, никогда бы не поверил, что мне такое может понравиться!.. Два раза посмотрел!.. aa Всем качать!!!

_________________
Всё когда-нибудь уже было... В интернете!
[Профиль]  [ЛС] 

Пост 13-Июл-2016 07:47 (спустя 1 месяц 2 дня)

Топик был перенесен из форума Новинки (HD|DVD|BD| TV|SAT|PDTV| - Rips) в форум Отечественные полнометражные мультфильмы
aleksey99
 

ossipoff

Корсар

Пост 18-Ноя-2016 09:33 (спустя 5 месяцев 7 дней)

[Q] 

Спасибо! Смотрим с удовольствием!
[Профиль]  [ЛС] 
Показать сообщения:    
Ответить на тему

Текущее время: Сегодня 04:29

Часовой пояс: GMT + 4



Вы не можете начинать темы
Вы не можете отвечать на сообщения
Вы не можете редактировать свои сообщения
Вы не можете удалять свои сообщения
Вы не можете голосовать в опросах
Вы не можете прикреплять файлы к сообщениям
Вы не можете скачивать файлы

▼ Вниз