ML
     
  Уважаемый Гость!
Вы можете поддержать проект и зарегистрироваться у наших партнеров - онлайн-стратегия MyLands. При регистрации в игре Вы получите код, который сможете активировать после регистрации на pirat.ca и получить 1000 дублонов.

Ваш код:
0af2e2107bc9b5dd5ac2c09f9fc25e1a77c43887
 
     

Богатырша (Ольга Лопато) [2015 г., мультфильм, HDRip] Перевод не требуется [Лицензия]

Ответить на тему
 
Автор
Сообщение

Пост 12-Июн-2016 12:47

[Q] 

somik

Легенда

-Богатырша-- Производство: Россия, Paradise
Год выпуска: 2015 г.
Жанр: мультфильм
Продолжительность: 01:15:52
Российская премьера: 1 января 2016, «Парадиз»
Дата выхода DVD: 29 февраля 2016, «Парадиз Медиа»
Дата выхода Blu-Ray: 29 февраля 2016, «Парадиз Медиа»
Перевод: Не требуется [Лицензия]
Режиссер: Ольга Лопато-В ролях: Анна Хилькевич, Алексей Чумаков, Гарик Харламов, Тимур Батрутдинов, Михаил Пореченков, Алёна Бабенко, Борис Щербаков, Мирослава Карпович, Армен Джигарханян, Василиса Эльдарова-Описание: …И было предсказание славному витязю Бориполку, что у него родится сын, который станет великим воином и спасет Русь от великой напасти. Но, как всегда, все вышло наоборот: у героя родилась… дочка. А спасения Руси никто не отменял. И как сражаться с врагом, когда у него три головы, и каждая со своими выкрутасами?-
Качество видео: HDRip
Контейнер: AVI
Видео кодек: XviD
Аудио кодек: MP3
Видео: 688x288 (2.39:1), 25 fps, XviD build 73 ~1243 kbps avg, 0.25 bit/pixel
Аудио: 48 kHz, MPEG Layer 3, 2 ch, ~128.00 kbps avg
Cубтитры: отсутствуют
Все привыкли представлять богатырей могучими бравыми ребятами, которые могут одной левой расправиться со страшным чудищем. А что если в роли богатыря выступит хрупкая девушка, но не менее храбрая и отважная, как в новом мультфильме «Богатырша»? Сюжету это идет только на пользу, похожих пока не снимали.
Все герои интересные. Чего только стоит Змей Горыныч. Он самый смешной персонаж и покорит любого. Его три головы все с разными характерами и постоянно спорят между собой, это самые забавные моменты в мультфильме. Одна голова любит петь, другая рисовать, а третья и вовсе не очень дружелюбная. Напоминают лебедя, рака и щуку, каждый тянет одеяло на себя. Но Горыныч совсем не злой, просто он хранит свой особенный секрет. Не последнюю здесь роль играет озвучка, благодаря Харламову, Батрутдинову и Чумакову герои оживают на экранах и обладают харизмой. Юмор легкий. Нет тонких шуточек и намеков, понятных только взрослым, бывает, что наши мультики этим грешат, в этом же просто смешной и здоровый смех. Вообще, мультик жизнерадостный и совсем не глупый, главная героиня умненькая, в меру хитрая и не наглая, с нее можно брать пример. Персонажи яркие, живые, со звонкими голосами, большими глазами, милые и смелые, хотя есть и пара хитрецов.
Саундтреки «Богатырши» это аранжировка русских народных песен. Добрая и незатейливая музыка, которая дополняет просмотр. Мультфильм снят для детей и уверена, что им понравится, но и взрослым будет смотреть совсем не скучно. Заряд позитива гарантирован.
9 из 10
Общее
Полное имя : F:\Богатырша\Bogatyrsha.2015.HDRip.[pirat.ca].avi
Формат : AVI
Формат/Информация : Audio Video Interleave
Размер файла : 750 Мбайт
Продолжительность : 1 ч. 15 м.
Общий поток : 1381 Кбит/сек
Название фильма : Bogatyrsha.2015.HDRip.[pirat.ca]
Программа кодирования : VirtualDubMod 1.5.10.3 | www.virtualdub-fr.org || (build 2550/release)
Видео
Идентификатор : 0
Формат : MPEG-4 Visual
Профиль формата : Advanced [email protected]
Параметр BVOP формата : 1
Параметр QPel формата : Нет
Параметр GMC формата : Без точки перехода
Параметр матрицы формата : Выборочная
Идентификатор кодека : XVID
Идентификатор кодека/Подсказка : XviD
Продолжительность : 1 ч. 15 м.
Битрейт : 1243 Кбит/сек
Ширина : 688 пикселей
Высота : 288 пикселей
Соотношение сторон : 2,40:1
Частота кадров : 25,000 кадров/сек
Цветовое пространство : YUV
Субдискретизация насыщенности : 4:2:0
Битовая глубина : 8 бит
Тип развёртки : Прогрессивная
Метод сжатия : С потерями
Бит/(Пиксели*Кадры) : 0.251
Размер потока : 675 Мбайт (90%)
Библиотека кодирования : XviD 73
Аудио
Идентификатор : 1
Формат : MPEG Audio
Версия формата : Version 1
Профиль формата : Layer 3
Идентификатор кодека : 55
Идентификатор кодека/Подсказка : MP3
Продолжительность : 1 ч. 15 м.
Вид битрейта : Постоянный
Битрейт : 128 Кбит/сек
Каналы : 2 канала
Частота : 48,0 КГц
Метод сжатия : С потерями
Размер потока : 69,5 Мбайт (9%)
Выравнивание : Соединение по промежуткам
Продолжительность промежутка : 40 мс. (1,00 видеокадр)
Время предзагрузки промежутка : 504 мс.
Библиотека кодирования : LAME3.99r
Настройки программы : -m s -V 4 -q 2 -lowpass 17 -b 128
Download / Скачать

Хотите скачать бесплатно? Зарегистрируйтесь на сайте (ссылка на регистрацию). Pirat.ca - самый быстрый торрент трекер в рунете!

Как скачивать  ·   Что такое торрент  ·   Рейтинг и ограничения

Пост 12-Июн-2016 23:21 (спустя 10 часов)

Топик был перенесен из форума Зарубежное Кино (Трюм) в форум Отечественные полнометражные мультфильмы
Андря
 
Показать сообщения:    
Ответить на тему

Текущее время: Сегодня 00:07

Часовой пояс: GMT + 4



Вы не можете начинать темы
Вы не можете отвечать на сообщения
Вы не можете редактировать свои сообщения
Вы не можете удалять свои сообщения
Вы не можете голосовать в опросах
Вы не можете прикреплять файлы к сообщениям
Вы не можете скачивать файлы

▼ Вниз