ML
     
  Уважаемый Гость!
Вы можете поддержать проект и зарегистрироваться у наших партнеров - онлайн-стратегия MyLands. При регистрации в игре Вы получите код, который сможете активировать после регистрации на pirat.ca и получить 1000 дублонов.

Ваш код:
73640f24f8a0f579e128ea7346fd2db2b1009143
 
     

Иван Царевич и Серый Волк (Владимир Торопчин) [2011 г., мультфильм, семейный, BDRip-AVC] (Лицензия)

Ответить на тему
 
Автор
Сообщение

Пост 07-Фев-2012 23:37

[Q] 

zyyx

--Иван Царевич и Серый Волк-- Год выпуска: 2011
Мировая премьера: 29 декабря 2011
Российская премьера: 29 декабря 2011, «Наше Кино»
Дата выхода DVD: 24 января 2012, «Lizard Cinema Trade»
Производство: Россия
Жанр: мультфильм, семейный
Продолжительность: 01:26:03
Перевод: Не требуется [Лицензия]
Субтитры: отсутствуют
Режиссер: Владимир Торопчин
В ролях
Никита Ефремов, Иван Охлобыстин, Артур Смольянинов, Лия Ахеджакова, Кристина Асмус, Виктор Сухоруков, Сергей Гармаш, Михаил Боярский...
Описание
Увлекательная история от создателей богатырской трилогии, в которой героев русских народных сказок ждут новые приключения, опасности и забавные ситуации.
Источник/Качество: BDRip-AVC | Сэмпл
Формат: MKV
Видео кодек: H.264
Аудио кодек: AC3
Видео: 1024x576 (16:9); 23,976 fps; 1980 kbps; 0.140 bit/pixel
Аудио: 6 ch., 48 kHz, ~448.00 kbps
General
Complete name : F:\movie\Ivan.i.Seryj.Volk.2011.O.BDRip.x264.potroks.mkv
Format : Matroska
File size : 1.46 GiB
Duration : 1h 26mn
Overall bit rate : 2 430 Kbps
Movie name : -=POTROKS=-
Encoded date : UTC 2012-02-07 15:31:05
Writing application : mkvmerge v5.2.1 ('A Far Off Place') built on Feb 6 2012 10:08:15
Writing library : libebml v1.2.3 + libmatroska v1.3.0
Video
ID : 1
Format : AVC
Format/Info : Advanced Video Codec
Format profile : [email protected]
Format settings, CABAC : Yes
Format settings, ReFrames : 11 frames
Muxing mode : Container [email protected]
Codec ID : V_MPEG4/ISO/AVC
Duration : 1h 25mn
Bit rate : 1 934 Kbps
Nominal bit rate : 1 980 Kbps
Width : 1 024 pixels
Height : 576 pixels
Display aspect ratio : 16:9
Frame rate mode : Variable
Frame rate : 23.976 fps
Resolution : 24 bits
Colorimetry : 4:2:0
Scan type : Progressive
Bits/(Pixel*Frame) : 0.137
Stream size : 1.16 GiB (79%)
Title : Ivan.i.Seryj.Volk.2011.O.BDRip.x264.potroks
Writing library : x264 core 116 r2019M 9cc407d
Encoding settings : cabac=1 / ref=12 / deblock=1:-2:-1 / analyse=0x3:0x133 / me=umh / subme=9 / psy=1 / psy_rd=1.00:0.00 / mixed_ref=1 / me_range=32 / chroma_me=1 / trellis=1 / 8x8dct=1 / cqm=0 / deadzone=21,11 / fast_pskip=0 / chroma_qp_offset=-2 / threads=8 / sliced_threads=0 / nr=0 / decimate=1 / interlaced=0 / bluray_compat=0 / constrained_intra=0 / bframes=8 / b_pyramid=1 / b_adapt=2 / b_bias=0 / direct=3 / weightb=1 / open_gop=0 / weightp=2 / keyint=230 / keyint_min=23 / scenecut=45 / intra_refresh=0 / rc_lookahead=40 / rc=2pass / mbtree=1 / bitrate=1980 / ratetol=1.0 / qcomp=0.60 / qpmin=10 / qpmax=51 / qpstep=4 / cplxblur=20.0 / qblur=0.5 / ip_ratio=1.40 / aq=1:1.20
Language : Russian
Audio
ID : 2
Format : AC-3
Format/Info : Audio Coding 3
Codec ID : A_AC3
Duration : 1h 26mn
Bit rate mode : Constant
Bit rate : 448 Kbps
Channel(s) : 6 channels
Channel positions : Front: L C R, Surround: L R, LFE
Sampling rate : 48.0 KHz
Stream size : 276 MiB (18%)
Title : AC3, 5.1 ch., 448 kbps
Language : Russian
Download / Скачать

Хотите скачать бесплатно? Зарегистрируйтесь на сайте (ссылка на регистрацию). Pirat.ca - самый быстрый торрент трекер в рунете!

Как скачивать  ·   Что такое торрент  ·   Рейтинг и ограничения

Пост 07-Фев-2012 23:45 (спустя 8 минут)

Топик был перенесен из форума Мультипликация в форум Новинки (HD|DVD|BD|TV|SAT|PDTV| - Rips)

ara1205
 

rrtryytyew4

Морской Волк

32

Пост 08-Фев-2012 21:17 (спустя 21 час)

[Q] 

Хороший мульт
[Профиль]  [ЛС] 

grubov

Морской Волк

54

Пост 08-Фев-2012 21:22 (спустя 5 минут)

[Q] 

[Профиль]  [ЛС] 

enson3

Шкипер

Пост 08-Фев-2012 23:44 (спустя 2 часа 22 минуты)

[Q] 

[Профиль]  [ЛС] 

bmf2000

Корсар

Пост 09-Фев-2012 00:04 (спустя 19 минут)

[Q] 

Спасибо!
[Профиль]  [ЛС] 

yru1886

Штурман

Пост 09-Фев-2012 00:25 (спустя 20 минут)

[Q] 

Спасибо!Сейчас посмотрим.
[Профиль]  [ЛС] 

nokia_series

Корсар

Пост 11-Фев-2012 10:09 (спустя 2 дня 9 часов)

[Q] 

О, неплохой русский мультик. Поржать можно. Но считаю не для детей он.
[Профиль]  [ЛС] 

jaytro

Морской Волк

Пост 11-Фев-2012 13:35 (спустя 3 часа)

[Q] 

поржать можно!!
[Профиль]  [ЛС] 

RuslanPL

Корсар

222

Пост 11-Фев-2012 14:07 (спустя 31 минута)

[Q] 

[Профиль]  [ЛС] 

paramon511

Морской Волк

Пост 11-Фев-2012 22:03 (спустя 7 часов)

[Q] 


_________________
[Профиль]  [ЛС] 

MihailG

Лоцман

Пост 12-Фев-2012 10:26 (спустя 12 часов)

[Q] 

[Профиль]  [ЛС] 

Optimus

Шкипер

Пост 12-Фев-2012 13:02 (спустя 2 часа 36 минут)

[Q] 

Спасибо!
[Профиль]  [ЛС] 

alexandr.x79

Корсар

807

Пост 13-Фев-2012 18:02 (спустя 1 день 4 часа)

[Q] 

скачаем,посмотрим.
[Профиль]  [ЛС] 

rd6dne

Лоцман

Пост 18-Фев-2012 19:52 (спустя 5 дней)

[Q] 

bp
Надоела иностранщина!!!!!
[Профиль]  [ЛС] 

RYT

Морской Волк

163

Пост 18-Фев-2012 21:07 (спустя 1 час 15 минут)

[Q] 

[Профиль]  [ЛС] 

Thc

Лоцман

Пост 19-Фев-2012 11:00 (спустя 13 часов)

[Q] 

[Профиль]  [ЛС] 

FiliN1987

Шкипер

Пост 19-Фев-2012 11:18 (спустя 17 минут)

[Q] 

[Профиль]  [ЛС] 

Andrello

Шкипер

Пост 19-Фев-2012 16:38 (спустя 5 часов)

[Q] 

не понравился. Ну не подходит голос Охлобыстина старому царю!!! бабе какой то куда бы лучше было иметь такой тонкий голосок
[Профиль]  [ЛС] 

$МАКС$

Штурман

Пост 19-Фев-2012 19:27 (спустя 2 часа 48 минут)

[Q] 

посмотрим что опять придумали
[Профиль]  [ЛС] 

Milan

Шкипер

Пост 19-Фев-2012 19:44 (спустя 17 минут)

[Q] 

Благодарю, обязательно поддержу раздачу
[Профиль]  [ЛС] 

Pronto

Корсар

Пост 19-Фев-2012 22:54 (спустя 3 часа)

[Q] 

хороший фильмец)

_________________
[Профиль]  [ЛС] 

Пост 20-Фев-2012 10:54 (спустя 11 часов)

Топик был перенесен из форума Новинки (HD|DVD|BD|TV|SAT|PDTV| - Rips) в форум Отечественные полнометражные мультфильмы

Skinwalker
 

Milan

Шкипер

Пост 23-Фев-2012 04:44 (спустя 3 дня)

[Q] 

Очень позитивный мульт, сам с удовольствием посмотрел. Правда иван что-то туповат через чур bu
[Профиль]  [ЛС] 

kosyak_kpol

Лоцман

Пост 11-Мар-2012 21:09 (спустя 17 дней)

[Q] 

Спасибо, посмотрим всей семьей.
[Профиль]  [ЛС] 

кеннт

Морской Волк

Пост 17-Мар-2012 09:32 (спустя 5 дней)

[Q] 

Спасибо!
[Профиль]  [ЛС] 

vik_kk

Штурман

Пост 20-Мар-2012 19:08 (спустя 3 дня)

[Q] 

Спасибо!!!!
[Профиль]  [ЛС] 

Прораб

Легенда

Пост 31-Янв-2014 20:37 (спустя 1 год 10 месяцев)

[Q] 

Спасибо!!!
Лови бочку

_________________
Config comp: CPU-i7-2600K/RAM-32Gb/GF580GTX-1536Mb/RAID0(2 SSD-480GB)+RAID5(8 HDD-20Tb)/Win7 64bit.
[Профиль]  [ЛС] 

Valera84

Морской Волк

Пост 13-Авг-2014 16:28 (спустя 6 месяцев 12 дней)

[Q] 

Отдельная благодарность за ЗОЛОТУЮ РАЗДАЧУ!
[Профиль]  [ЛС] 

svmaxuss

Мичман

Пост 06-Янв-2016 11:08 (спустя 1 год 4 месяца)

[Q] 

Спасибо за мульт, пополнил коллекцию.
Супер!
[Профиль]  [ЛС] 
Показать сообщения:    
Ответить на тему

Текущее время: Сегодня 22:33

Часовой пояс: GMT + 4



Вы не можете начинать темы
Вы не можете отвечать на сообщения
Вы не можете редактировать свои сообщения
Вы не можете удалять свои сообщения
Вы не можете голосовать в опросах
Вы не можете прикреплять файлы к сообщениям
Вы не можете скачивать файлы

▼ Вниз