ML
     
  Уважаемый Гость!
Вы можете поддержать проект и зарегистрироваться у наших партнеров - онлайн-стратегия MyLands. При регистрации в игре Вы получите код, который сможете активировать после регистрации на pirat.ca и получить 1000 дублонов.

Ваш код:
e93cd9e43017f251127f220889864c05934e61c6
 
     

Приключения домовёнка Кузи ( Приключения домовенка ; Дом для Кузьки ; Сказка для Наташи ; Возвращение домовенка ) (Зябликова Аида) [1984-1987г., Мультфильм, DVDRip]

Ответить на тему
 
Автор
Сообщение

Пост 14-Фев-2012 20:42

[Q] 

Андря

Приключения домовёнка Кузи
Год выпуска: 1986
Жанр: Мультфильм
Продолжительность: 00:54:00
Страна: СССР
Режиссер: А.Зябликова
В ролях: Роли озвучивали: Г. Вицин, Т. Пельтцер, С. Травкина, Ф. Иванов, А. Крюков, Г. Большаков, Э. Прохницкая, Г. Горбачев.
Описание: Мультипликационный сериал о приключениях домового Кузи, состоящий из четырех серий: Фильм первый "Приключения домовенка" - о приключениях домового Кузи у Бабы-Яги, которая выкрала его для того, чтобы он принес ей счастье. Фильм второй "Дом для Кузькм" - о том, как девочка Наташа обнаружила в своей квартире домового Кузю, и как он освоил новый для себя уклад городской квартиры. Фильм третий "Сказка для Наташи" - о том, как домовой Кузя, сбежавший от Бабы-Яги, попадает в квартиру Наташи и обучает девочку бережному отношению к хлебу, своим вещам, игрушкам. Фильм четвертый "Возвращение домовенка" - о том, как Ворона спасла домового Кузю от Бабы-Яги и вернула его девочке Наташе.
Доп. информация:
1. Приключения домовенка (1986 год)
2. Дом для Кузьки (1984 год)
3. Сказка для Наташи (1986 год)
4. Возвращение домовенка (1987 год)
Качество: DVDRip
Формат: AVI
Видео кодек: DivX
Аудио кодек: MPEG Audio
Видео: DivX 4, 1642 Кбит/сек, 512х384, 4:3, 25,000 кадров/сек, 8 бит, 0.33 Бит/Пиксел
Аудио: 44.100 kHz, MPEG Layer 3, 2 ch, ~127.70 kbps avg
Общее
Полное имя : Домовёнок Кузя.avi
Формат : AVI
Формат/Информация : Audio Video Interleave
Размер файла : 692 Мбайт
Продолжительность : 54 м.
Общий поток : 1780 Кбит/сек
Библиотека кодирования : VirtualDub build 12667/release
Видео
Идентификатор : 0
Формат : MPEG-4 Visual
Параметр BVOP формата : Да
Параметр QPel формата : Нет
Параметр GMC формата : Без точки перехода
Параметр матрицы формата : Default (H.263)
Идентификатор кодека : DIVX
Идентификатор кодека/Информация : Project Mayo
Идентификатор кодека/Подсказка : DivX 4
Продолжительность : 54 м.
Битрейт : 1642 Кбит/сек
Ширина : 512 пикселей
Высота : 384 пикселя
Соотношение сторон : 4:3
Частота кадров : 25,000 кадров/сек
Цветовое пространство : YUV
Субдискретизация насыщенности : 4:2:0
Битовая глубина : 8 бит
Тип развёртки : Прогрессивная
Метод сжатия : С потерями
Бит/(Пиксели*Кадры) : 0.334
Размер потока : 639 Мбайт (92%)
Аудио
Идентификатор : 1
Формат : MPEG Audio
Версия формата : Version 1
Профиль формата : Layer 3
Идентификатор кодека : 55
Идентификатор кодека/Подсказка : MP3
Продолжительность : 54 м.
Вид битрейта : Постоянный
Битрейт : 128 Кбит/сек
Каналы : 2 канала
Частота : 44,1 КГц
Метод сжатия : С потерями
Задержка видео : 23 мс.
Размер потока : 49,7 Мбайт (7%)
Выравнивание : Разделение по промежуткам
Продолжительность промежутка : 40 мс. (1,00 видеокадр)
Время предзагрузки промежутка : 499 мс.































Download / Скачать

Хотите скачать бесплатно? Зарегистрируйтесь на сайте (ссылка на регистрацию). Pirat.ca - самый быстрый торрент трекер в рунете!

Как скачивать  ·   Что такое торрент  ·   Рейтинг и ограничения

Пост 14-Фев-2012 20:56 (спустя 13 минут)

Топик был перенесен из форума Мультипликация в форум Отечественные полнометражные мультфильмы

Никита
 

xprotm

Корсар

5

Пост 14-Фев-2012 21:22 (спустя 39 минут)

[Q] 

[Профиль]  [ЛС] 

berezeca

Корсар

Пост 16-Фев-2012 16:44 (спустя 1 день 19 часов)

[Q] 

Спасибо.
[Профиль]  [ЛС] 

Ospan

Корсар

Пост 08-Мар-2012 23:31 (спустя 21 день)

[Q] 

[Профиль]  [ЛС] 

Vitos

Шкипер

Пост 09-Май-2012 20:34 (спустя 2 месяца)

[Q] 

[Профиль]  [ЛС] 

belov999

Лоцман

Пост 04-Июн-2012 11:31 (спустя 25 дней)

[Q] 

[Профиль]  [ЛС] 

Chev Chelios

Морской Волк

Пост 13-Июл-2012 21:07 (спустя 1 месяц 9 дней)

[Q] 

[Профиль]  [ЛС] 

катюшка

Пост 18-Авг-2012 21:09 (спустя 1 месяц 5 дней)

[Q] 

спасибо.
[Профиль]  [ЛС] 

shah-ilya

Штурман

Пост 07-Сен-2012 15:50 (спустя 19 дней)

[Q] 

[Профиль]  [ЛС] 

sergyck

Лоцман

Пост 10-Сен-2012 19:07 (спустя 3 дня)

[Q] 

Спасибо большое!!!
[Профиль]  [ЛС] 

azeeza

Лоцман

Пост 11-Сен-2012 10:24 (спустя 15 часов)

[Q] 

Поддайте скорости, а... Что не начну качать - все дико медленно! С других торрент-треккеров отлично качает!
[Профиль]  [ЛС] 

alex denver71

Флибустьер

Пост 18-Авг-2014 08:01 (спустя 1 год 11 месяцев)

[Q] 

Автору респект!!! Один из любимых мультиков моего сына!!! ay
[Профиль]  [ЛС] 

xzxscorpxzx

Флибустьер

Пост 22-Сен-2015 09:32 (спустя 1 год 1 месяц)

[Q] 

спасибо)качаем) Лови бочку
[Профиль]  [ЛС] 
Показать сообщения:    
Ответить на тему

Текущее время: Сегодня 04:24

Часовой пояс: GMT + 4



Вы не можете начинать темы
Вы не можете отвечать на сообщения
Вы не можете редактировать свои сообщения
Вы не можете удалять свои сообщения
Вы не можете голосовать в опросах
Вы не можете прикреплять файлы к сообщениям
Вы не можете скачивать файлы

▼ Вниз