ML
     
  Уважаемый Гость!
Вы можете поддержать проект и зарегистрироваться у наших партнеров - онлайн-стратегия MyLands. При регистрации в игре Вы получите код, который сможете активировать после регистрации на pirat.ca и получить 1000 дублонов.

Ваш код:
500cb7bd8d2cec9a8aba647a87ce41c4b76f06bd
 
     

Ночь перед Рождеством (Зинаида Брумберг, Валентина Брумберг) [1951, Мультфильм, DVDRip]

Ответить на тему
 
Автор
Сообщение

Пост 14-Фев-2012 21:48

[Q] 

Андря

Ночь перед Рождеством
Год выпуска: 1951
Страна: СССР
Жанр: Мультфильм
Продолжительность: 00:45:58
Режиссёр: Зинаида Брумберг, Валентина Брумберг
Роли озвучивали: Лилия Гриценко, Николай Гриценко, Михаил Яншин, А. Жильцов, Владимир Грибков, Вера Марецкая
Описание: По повести Гоголя "Ночь перед Рождеством" на музыку Римского-Корсакова
Качество: DVDRip
Формат: AVI
Видео кодек: XVID
Аудио кодек: AC-3
Видео: XviD, 1661 Кбит/сек, 704х528, 4:3, 25,000 кадров/сек, 8 бит, 0.179 Бит/Пиксел
Аудио: AC3 Dolby Digital, 192 Кбит/сек 2 канала, Front: L R, 48,0 КГц, 16 бит
Общее
Полное имя : Ночь перед рождеством.avi
Формат : AVI
Формат/Информация : Audio Video Interleave
Размер файла : 611 Мбайт
Продолжительность : 45 м.
Общий поток : 1860 Кбит/сек
Видео
Идентификатор : 0
Формат : MPEG-4 Visual
Профиль формата : Advanced [email protected]
Параметр BVOP формата : 2
Параметр QPel формата : Нет
Параметр GMC формата : Без точки перехода
Параметр матрицы формата : Default (H.263)
Режим смешивания : Сжатый битовый поток
Идентификатор кодека : XVID
Идентификатор кодека/Подсказка : XviD
Продолжительность : 45 м.
Битрейт : 1661 Кбит/сек
Ширина : 704 пикселя
Высота : 528 пикселей
Соотношение сторон : 4:3
Частота кадров : 25,000 кадров/сек
Цветовое пространство : YUV
Субдискретизация насыщенности : 4:2:0
Битовая глубина : 8 бит
Тип развёртки : Прогрессивная
Метод сжатия : С потерями
Бит/(Пиксели*Кадры) : 0.179
Размер потока : 546 Мбайт (89%)
Библиотека кодирования : XviD 1.2.1 (UTC 2008-12-04)
Аудио
Идентификатор : 1
Формат : AC-3
Формат/Информация : Audio Coding 3
Расширение режима : CM (complete main)
Идентификатор кодека : 2000
Продолжительность : 45 м.
Вид битрейта : Постоянный
Битрейт : 192 Кбит/сек
Каналы : 2 канала
Расположение каналов : Front: L R
Частота : 48,0 КГц
Битовая глубина : 16 бит
Метод сжатия : С потерями
Задержка видео : 12 мс.
Размер потока : 63,1 Мбайт (10%)
Выравнивание : Разделение по промежуткам
Продолжительность промежутка : 84 мс. (2,10 видеокадра)


Download / Скачать

Хотите скачать бесплатно? Зарегистрируйтесь на сайте (ссылка на регистрацию). Pirat.ca - самый быстрый торрент трекер в рунете!

Как скачивать  ·   Что такое торрент  ·   Рейтинг и ограничения



Последний раз редактировалось: Андря (2012-02-14 22:45), всего редактировалось 1 раз

Пост 14-Фев-2012 22:34 (спустя 46 минут)

Топик был перенесен из форума Мультипликация в форум Отечественные полнометражные мультфильмы

ara1205
 
Показать сообщения:    
Ответить на тему

Текущее время: Сегодня 01:46

Часовой пояс: GMT + 4



Вы не можете начинать темы
Вы не можете отвечать на сообщения
Вы не можете редактировать свои сообщения
Вы не можете удалять свои сообщения
Вы не можете голосовать в опросах
Вы не можете прикреплять файлы к сообщениям
Вы не можете скачивать файлы

▼ Вниз