ML
     
  Уважаемый Гость!
Вы можете поддержать проект и зарегистрироваться у наших партнеров - онлайн-стратегия MyLands. При регистрации в игре Вы получите код, который сможете активировать после регистрации на pirat.ca и получить 1000 дублонов.

Ваш код:
2932e5898d0a27592397f70b82a5834d1e70ea19
 
     

Пропавшая грамота ( Валентина Брумберг, Ламис Бредис ) [ 1951 г., Мультфильм, DVDRip]

Ответить на тему
 
Автор
Сообщение

Пост 14-Фев-2012 23:37

[Q] 

Андря

Пропавшая грамота
Год выпуска: 1951
Жанр: Мультфильм
Продолжительность: 00:40:19
Производство: СССР
Выпущено: Киностудия "Союзмультфильм"
Релиз на DVD: 9 ноября 2010, «Флагман-Трейд»
Режиссер: Валентина Брумберг, Ламис Бредис
Описание: Фильм сделан по одноименной повести Н.В. Гоголя. В нем рассказывается о том, как казак отправился в Петербург отвезти грамоту Царице. Целая цепь приключений и препятствий возникает на его пути, но казак преодолевает их и достигает цели.
Качество: DVDRip
Формат: AVI
Видео кодек: XVID
Аудио кодек: AC3
Видео: XviD, 2026 Кбит/сек, 720х544, 4:3, 25,000 кадров/сек, 8 бит, 0.207 Бит/Пиксел
Аудио: Audio Coding 3, 224 Кбит/сек, 2 канала, Front: L R, 48,0 КГц, 16 бит
Общее
Полное имя : Propavshaya gramota.avi
Формат : AVI
Формат/Информация : Audio Video Interleave
Размер файла : 651 Мбайт
Продолжительность : 40 м.
Общий поток : 2257 Кбит/сек
Программа кодирования : VirtualDubMod 1.5.4.1 (build 2178/release)
Библиотека кодирования : VirtualDubMod build 2178/release
Видео
Идентификатор : 0
Формат : MPEG-4 Visual
Профиль формата : Advanced [email protected]
Параметр BVOP формата : 1
Параметр QPel формата : Нет
Параметр GMC формата : Без точки перехода
Параметр матрицы формата : Выборочная
Идентификатор кодека : XVID
Идентификатор кодека/Подсказка : XviD
Продолжительность : 40 м.
Битрейт : 2026 Кбит/сек
Ширина : 720 пикселей
Высота : 544 пикселя
Соотношение сторон : 4:3
Частота кадров : 25,000 кадров/сек
Цветовое пространство : YUV
Субдискретизация насыщенности : 4:2:0
Битовая глубина : 8 бит
Тип развёртки : Прогрессивная
Метод сжатия : С потерями
Бит/(Пиксели*Кадры) : 0.207
Размер потока : 585 Мбайт (90%)
Библиотека кодирования : XviD 1.2.0.dev47 (UTC 2006-11-01)
Аудио
Идентификатор : 1
Формат : AC-3
Формат/Информация : Audio Coding 3
Расширение режима : CM (complete main)
Идентификатор кодека : 2000
Продолжительность : 40 м.
Вид битрейта : Постоянный
Битрейт : 224 Кбит/сек
Каналы : 2 канала
Расположение каналов : Front: L R
Частота : 48,0 КГц
Битовая глубина : 16 бит
Метод сжатия : С потерями
Размер потока : 64,7 Мбайт (10%)
Выравнивание : Разделение по промежуткам
Продолжительность промежутка : 96 мс. (2,40 видеокадра)
Время предзагрузки промежутка : 96 мс.
Язык : Russian








Download / Скачать

Хотите скачать бесплатно? Зарегистрируйтесь на сайте (ссылка на регистрацию). Pirat.ca - самый быстрый торрент трекер в рунете!

Как скачивать  ·   Что такое торрент  ·   Рейтинг и ограничения

Показать сообщения:    
Ответить на тему

Текущее время: Сегодня 08:06

Часовой пояс: GMT + 4



Вы не можете начинать темы
Вы не можете отвечать на сообщения
Вы не можете редактировать свои сообщения
Вы не можете удалять свои сообщения
Вы не можете голосовать в опросах
Вы не можете прикреплять файлы к сообщениям
Вы не можете скачивать файлы

▼ Вниз