ML
     
  Уважаемый Гость!
Вы можете поддержать проект и зарегистрироваться у наших партнеров - онлайн-стратегия MyLands. При регистрации в игре Вы получите код, который сможете активировать после регистрации на pirat.ca и получить 1000 дублонов.

Ваш код:
e93cd9e43017f251127f220889864c05934e61c6
 
     

Карлик Нос (Илья Максимов) [2003 г., мультфильм, фэнтези, DVDRip]

Ответить на тему
 
Автор
Сообщение

Пост 16-Фев-2012 17:45

[Q] 

Андря

Карлик Нос
Год выпуска: 2003
Страна: Россия
Производство: Анимационная студия Мельница (СТС)
Жанр: фэнтези, мультфильм
Продолжительность: 01:18:55
Премьера в России: 20 марта 2003
Премьера в мире: 11 апреля 2003
Режиссер: Илья Максимов
Сценарий: Вильгельм Гауф, Наталья Чепик
Описание: В основу сюжета положена волшебная сказка Вильгельма Гауфа. Для того чтобы осуществить свои коварные планы, злой колдунье нужен ребенок с очень добрым сердцем. Обманом она заманивает к себе маленького Якоба — сына сапожника и зеленщицы.
Когда Якоб отказывается участвовать в ее сомнительных делах, ведьма превращает его в уродливого карлика. Но вечная сила любви и дружбы помогает героям сказки рассеять злые чары…
Качество: DVDRip
Формат: AVI
Видео кодек: XVID
Аудио кодек: АС-3
Видео: XviD, 2186 Кбит/сек, 720x432, 25,000 кадр/сек, 8 бит, 0.28 Бит/Пиксел
Аудио: AC3 Dolby Digital, 448 Кбит/сек, 3/2 (L,C,R,l,r) + LFE ch 48,0 КГц
Общее
Полное имя : Karlik Nos.avi
Формат : AVI
Формат/Информация : Audio Video Interleave
Размер файла : 1,46 Гбайт
Продолжительность : 1 ч. 18 м.
Общий поток : 2644 Кбит/сек
Программа кодирования : VirtualDubMod 1.5.10.3 | (build 2550/release)
Библиотека кодирования : VirtualDubMod build 2550/release
Видео
Идентификатор : 0
Формат : MPEG-4 Visual
Профиль формата : Advanced [email protected]
Параметр BVOP формата : 1
Параметр QPel формата : Нет
Параметр GMC формата : Без точки перехода
Параметр матрицы формата : Выборочная
Идентификатор кодека : XVID
Идентификатор кодека/Подсказка : XviD
Продолжительность : 1 ч. 18 м.
Битрейт : 2186 Кбит/сек
Ширина : 720 пикселей
Высота : 432 пикселя
Соотношение сторон : 1,667
Частота кадров : 25,000 кадров/сек
Цветовое пространство : YUV
Субдискретизация насыщенности : 4:2:0
Битовая глубина : 8 бит
Тип развёртки : Прогрессивная
Метод сжатия : С потерями
Бит/(Пиксели*Кадры) : 0.281
Размер потока : 1,20 Гбайт (83%)
Библиотека кодирования : XviD 65
Аудио
Идентификатор : 1
Формат : AC-3
Формат/Информация : Audio Coding 3
Расширение режима : CM (complete main)
Идентификатор кодека : 2000
Продолжительность : 1 ч. 18 м.
Вид битрейта : Постоянный
Битрейт : 448 Кбит/сек
Каналы : 6 каналов
Расположение каналов : Front: L C R, Side: L R, LFE
Частота : 48,0 КГц
Битовая глубина : 16 бит
Метод сжатия : С потерями
Размер потока : 253 Мбайт (17%)
Выравнивание : Разделение по промежуткам
Продолжительность промежутка : 40 мс. (1,00 видеокадр)
Время предзагрузки промежутка : 500 мс.







Download / Скачать

Хотите скачать бесплатно? Зарегистрируйтесь на сайте (ссылка на регистрацию). Pirat.ca - самый быстрый торрент трекер в рунете!

Как скачивать  ·   Что такое торрент  ·   Рейтинг и ограничения



Последний раз редактировалось: Андря (2012-02-16 18:26), всего редактировалось 1 раз

Пост 16-Фев-2012 18:34 (спустя 49 минут)

Топик был перенесен из форума Мультипликация в форум Отечественные полнометражные мультфильмы

ara1205
 
Показать сообщения:    
Ответить на тему

Текущее время: Сегодня 04:28

Часовой пояс: GMT + 4



Вы не можете начинать темы
Вы не можете отвечать на сообщения
Вы не можете редактировать свои сообщения
Вы не можете удалять свои сообщения
Вы не можете голосовать в опросах
Вы не можете прикреплять файлы к сообщениям
Вы не можете скачивать файлы

▼ Вниз