ML
     
  Уважаемый Гость!
Вы можете поддержать проект и зарегистрироваться у наших партнеров - онлайн-стратегия MyLands. При регистрации в игре Вы получите код, который сможете активировать после регистрации на pirat.ca и получить 1000 дублонов.

Ваш код:
0af2e2107bc9b5dd5ac2c09f9fc25e1a77c43887
 
     

Бабка Ёжка и другие (Валерий Угаров) [2006 г., Приключения, мультфильм, детский, BDRip]

Ответить на тему
 
Автор
Сообщение

Пост 16-Фев-2012 18:08

[Q] 

Андря

Бабка Ёжка и другие
Год выпуска: 2006
Жанр: Приключения, мультфильм, детский
Продолжительность: 01:13:10
Премьера (РФ): 21 февраля 2008, «Панорама Кино»
Релиз на Blu-Ray: 12 марта 2009, «Мистерия Звука»
Релиз на DVD: 2 октября 2008, «Мистерия Звука»
Режиссер: Валерий Угаров
В ролях: Армен Джигарханян, Михаил Кокшенов, Татьяна Бондаренко, Александр Пожаров, Алексей Колган, Дмитрий Филимонов, Анна Орёл, Татьяна Бондаренко
Описание: История маленькой девочки, по воле судьбы попавшей к сказочным персонажам, обитающим в дремучем лесу. Это — Баба-яга, Леший, Кикимора, Водяной, Кощей — герои русских народных сказок, так называемая «нечистая сила».
Качество: BDRip-AVC
Формат: MKV
Видео кодек: x264
Аудио кодек: AC3
Видео: V_MPEG4/ISO/AVC, 2465 Кбит/сек, : 1280х720, 16:9, 23,976 кадр/сек, 8 бит, 0.109 Бит/Пиксел
Аудио: A_AC3, 384 Кбит/сек, 6 канала(ов), Front: L C R, Surround: L R, LFE, 48,0 КГц
Общее
Уникальный идентификатор : 184224715159332217337558242731360358293 (0x8A9863B908E777888753F98929718F95)
Полное имя : babka_ezhka_i_drugie.mkv
Формат : Matroska
Версия формата : Version 2
Размер файла : 1,46 Гбайт
Продолжительность : 1 ч. 13 м.
Общий поток : 2849 Кбит/сек
Дата кодирования : UTC 2010-03-19 10:05:50
Программа кодирования : mkvmerge v3.2.0 ('Beginnings') built on Feb 12 2010 16:46:17
Библиотека кодирования : libebml v0.7.9 + libmatroska v0.8.1
Видео
Идентификатор : 1
Формат : AVC
Формат/Информация : Advanced Video Codec
Профиль формата : [email protected]
Параметр CABAC формата : Да
Параметр ReFrames формата : 12 кадров
Идентификатор кодека : V_MPEG4/ISO/AVC
Продолжительность : 1 ч. 13 м.
Битрейт : 2465 Кбит/сек
Ширина : 1280 пикселей
Высота : 720 пикселей
Соотношение сторон : 16:9
Частота кадров : 23,976 кадра/сек
Цветовое пространство : YUV
Субдискретизация насыщенности : 4:2:0
Битовая глубина : 8 бит
Тип развёртки : Прогрессивная
Бит/(Пиксели*Кадры) : 0.112
Размер потока : 1,23 Гбайт (85%)
Библиотека кодирования : x264 core 85 r1442 781d300
Настройки программы : cabac=1 / ref=12 / deblock=1:-2:-1 / analyse=0x3:0x133 / me=umh / subme=10 / psy=1 / psy_rd=1.00:0.00 / mixed_ref=1 / me_range=32 / chroma_me=1 / trellis=2 / 8x8dct=1 / cqm=0 / deadzone=21,11 / fast_pskip=1 / chroma_qp_offset=-2 / threads=3 / sliced_threads=0 / nr=0 / decimate=1 / mbaff=0 / constrained_intra=0 / bframes=12 / b_pyramid=2 / b_adapt=2 / b_bias=0 / direct=3 / wpredb=1 / wpredp=2 / keyint=250 / keyint_min=25 / scenecut=40 / intra_refresh=0 / rc=2pass / mbtree=0 / bitrate=2465 / ratetol=1.0 / qcomp=0.60 / qpmin=10 / qpmax=51 / qpstep=4 / cplxblur=20.0 / qblur=0.5 / ip_ratio=1.40 / pb_ratio=1.30 / aq=1:1.00
Язык : English
Default : Нет
Forced : Нет
Аудио
Идентификатор : 2
Формат : AC-3
Формат/Информация : Audio Coding 3
Расширение режима : CM (complete main)
Идентификатор кодека : A_AC3
Продолжительность : 1 ч. 13 м.
Вид битрейта : Постоянный
Битрейт : 384 Кбит/сек
Каналы : 6 каналов
Расположение каналов : Front: L C R, Side: L R, LFE
Частота : 48,0 КГц
Битовая глубина : 16 бит
Метод сжатия : С потерями
Размер потока : 201 Мбайт (13%)
Default : Да
Forced : Нет










Download / Скачать

Хотите скачать бесплатно? Зарегистрируйтесь на сайте (ссылка на регистрацию). Pirat.ca - самый быстрый торрент трекер в рунете!

Как скачивать  ·   Что такое торрент  ·   Рейтинг и ограничения

Пост 16-Фев-2012 20:33 (спустя 2 часа 25 минут)

Топик был перенесен из форума Мультипликация в форум Отечественные полнометражные мультфильмы

ThisMan
 

rezjus

Корсар

Пост 09-Мар-2012 07:59 (спустя 21 день)

[Q] 

Оформление мультфильма - так себе. Но всё равно за раздачу спасибо.
[Профиль]  [ЛС] 

dilov2007

Шкипер

Пост 11-Апр-2014 16:05 (спустя 2 года 1 месяц)

[Q] 

Посмотрим с детьми...
Автору респект!!!

_________________
Не суди сам! И не судим будешь.
[Профиль]  [ЛС] 

mel2517

Юнга

Пост 16-Июл-2014 17:48 (спустя 3 месяца 5 дней)

[Q] 

спасибо, будем смотреть с детьми
[Профиль]  [ЛС] 

FINN54

Гроза морей

Пост 13-Авг-2015 14:07 (спустя 1 год)

[Q] 

Прикольный мультфильм ,детям должен понравиться
[Профиль]  [ЛС] 

dermat2

Морской Волк

Пост 18-Авг-2015 19:07 (спустя 5 дней)

[Q] 

Спасибо. !COOL!
[Профиль]  [ЛС] 
Показать сообщения:    
Ответить на тему

Текущее время: Сегодня 00:03

Часовой пояс: GMT + 4



Вы не можете начинать темы
Вы не можете отвечать на сообщения
Вы не можете редактировать свои сообщения
Вы не можете удалять свои сообщения
Вы не можете голосовать в опросах
Вы не можете прикреплять файлы к сообщениям
Вы не можете скачивать файлы

▼ Вниз