ML
     
  Уважаемый Гость!
Вы можете поддержать проект и зарегистрироваться у наших партнеров - онлайн-стратегия MyLands. При регистрации в игре Вы получите код, который сможете активировать после регистрации на pirat.ca и получить 1000 дублонов.

Ваш код:
c89b4b6523eaac3173e9a9c062ac1a19db575961
 
     

Смешарики. Начало (Денис Чернов) [2011 г., мультфильм, комедия, приключения, семейный, HDRip-AVC] (Лицензия) [internal release]

Ответить на тему
 
Автор
Сообщение

Пост 19-Фев-2012 13:14

[Q] 

zyyx

--Смешарики. Начало
«Все по-взрослому!»
-- Год выпуска: 2011
Мировая премьера: 22 декабря 2011
Российская премьера: 22 декабря 2011, «Каропрокат»
Дата выхода DVD: 26 января 2012, «Новый Диск»
Дата выхода Blu-Ray: 16 февраля 2012, «Новый Диск»
Производство: Россия
Жанр: мультфильм, комедия, приключения, семейный
Продолжительность: 01:30:56
Перевод: Не требуется [Лицензия]
Субтитры: отсутствуют
Режиссер: Денис Чернов
В ролях
Вадим Бочанов, Сергей Мардарь, Антон Виноградов, Светлана Письмиченко, Владимир Постников, Михаил Черняк, Ксения Бржезовская, Михаил Хрусталев, Владимир Маслаков, Андрей Лёвин
Описание
Такую экстремальную историю про Смешариков вы не могли себе представить: покинув свою уютную страну, Смешарики оказываются в современном мегаполисе в роли супергероев! Зачем? Они приняли очень важное для себя решение — спасти мир от нависшей угрозы. Этот «ответственный» шаг приводит к самому захватывающему приключению в их жизни!
Источник/Качество: HDRip-AVC | Сэмпл
Формат: MKV
Видео кодек: H.264
Аудио кодек: AC3
Видео: 1024x576, 23.976 fps, 1852 Kbps, 0.128 bit/pixel
Аудио: 48.0 KHz, 6 ch, 448 Kbps
General
Complete name : F:\torrent\Smeshariki.Nachalo.2011.HDRip-AVC.zyyx.mkv
Format : Matroska
File size : 1.46 GiB
Duration : 1h 30mn
Overall bit rate : 2 302 Kbps
Encoded date : UTC 2012-02-19 08:53:14
Writing application : mkvmerge v4.6.0 ('Still Crazy After All These Years') сборка от Mar 13 2011 18:33:29
Writing library : libebml v1.2.0 + libmatroska v1.1.0
Video
ID : 1
Format : AVC
Format/Info : Advanced Video Codec
Format profile : [email protected]
Format settings, CABAC : Yes
Format settings, ReFrames : 16 frames
Muxing mode : Container [email protected]
Codec ID : V_MPEG4/ISO/AVC
Duration : 1h 30mn
Bit rate : 1 808 Kbps
Nominal bit rate : 1 852 Kbps
Width : 1 024 pixels
Height : 576 pixels
Display aspect ratio : 16:9
Frame rate : 23.976 fps
Resolution : 24 bits
Colorimetry : 4:2:0
Scan type : Progressive
Bits/(Pixel*Frame) : 0.128
Stream size : 1.15 GiB (78%)
Writing library : x264 core 114 r1924 08d04a4
Audio
ID : 2
Format : AC-3
Format/Info : Audio Coding 3
Codec ID : A_AC3
Duration : 1h 30mn
Bit rate mode : Constant
Bit rate : 448 Kbps
Channel(s) : 6 channels
Channel positions : Front: L C R, Surround: L R, LFE
Sampling rate : 48.0 KHz
Stream size : 291 MiB (19%)
Download / Скачать

Хотите скачать бесплатно? Зарегистрируйтесь на сайте (ссылка на регистрацию). Pirat.ca - самый быстрый торрент трекер в рунете!

Как скачивать  ·   Что такое торрент  ·   Рейтинг и ограничения

Пост 19-Фев-2012 13:43 (спустя 28 минут)

Топик был перенесен из форума Мультипликация в форум Новинки (HD|DVD|BD|TV|SAT|PDTV| - Rips)

CaptRom
 

lidi

Шкипер

Пост 19-Фев-2012 15:11 (спустя 1 час 57 минут)

[Q] 

[Профиль]  [ЛС] 

vlasovmn

Лоцман

Пост 19-Фев-2012 16:12 (спустя 1 час)

[Q] 

Отличный мульт
[Профиль]  [ЛС] 

Пост 20-Фев-2012 10:54 (спустя 18 часов)

Топик был перенесен из форума Новинки (HD|DVD|BD|TV|SAT|PDTV| - Rips) в форум Отечественные полнометражные мультфильмы

Skinwalker
 

berezeca

Корсар

Пост 20-Фев-2012 18:51 (спустя 1 день 2 часа)

[Q] 

Спасибо.
[Профиль]  [ЛС] 

sandman1973

Гроза морей

2129

Пост 03-Апр-2012 14:20 (спустя 1 месяц 11 дней)

[Q] 

СМОТРЕЛ!!!!! СУПЕР!!!!!!!!

_________________

[Профиль]  [ЛС] 

shkoda2

Лоцман

Пост 11-Апр-2012 21:39 (спустя 8 дней)

[Q] 

[Профиль]  [ЛС] 

OlegSh

Морской Волк

Пост 16-Апр-2012 08:18 (спустя 4 дня)

[Q] 

срочно надо посмотреть
[Профиль]  [ЛС] 

tommek

Морской Волк

231

Пост 21-Апр-2012 22:50 (спустя 5 дней)

[Q] 

посмотримс

_________________
[Профиль]  [ЛС] 

Zha-pol

Легенда

Пост 14-Авг-2012 20:16 (спустя 3 месяца 22 дня)

[Q] 

Забрал

_________________
[Профиль]  [ЛС] 

катюшка

Пост 18-Авг-2012 21:11 (спустя 4 дня)

[Q] 

благодарим за раздачу!!!!!!.
[Профиль]  [ЛС] 
Показать сообщения:    
Ответить на тему

Текущее время: Сегодня 22:29

Часовой пояс: GMT + 4



Вы не можете начинать темы
Вы не можете отвечать на сообщения
Вы не можете редактировать свои сообщения
Вы не можете удалять свои сообщения
Вы не можете голосовать в опросах
Вы не можете прикреплять файлы к сообщениям
Вы не можете скачивать файлы

▼ Вниз