ML
     
  Уважаемый Гость!
Вы можете поддержать проект и зарегистрироваться у наших партнеров - онлайн-стратегия MyLands. При регистрации в игре Вы получите код, который сможете активировать после регистрации на pirat.ca и получить 1000 дублонов.

Ваш код:
0ea1bf889af42fca5f67d0a391efb3400850ad7c
 
     

Человечка нарисовал я (Зинаида Брумберг, Валентин Лалаянц, Валентина Брумберг) [1960 г., мультфильм, DVDRip]

Ответить на тему
 
Автор
Сообщение

Пост 02-Мар-2012 09:08

[Q] 

ara1205

Человечка нарисовал я
Год выпуска: 1960
Производство: СССР
Жанр: мультфильм
Продолжительность: 00:52:42
Перевод: Не требуется
Субтитры: отсутствуют
Режиссер: Зинаида Брумберг, Валентин Лалаянц, Валентина Брумберг
Описание
О мальчике, который испачкал стену в классе, за что по ошибке наказали его товарища. После долгих мучений и многих
приключений с участием игрушек и волшебных персонажей герой сознает свою неправоту и признается в своей вине.
КиноПоиск
Источник/Качество: DVDRip
Формат: AVI
Видео кодек: XviD
Аудио кодек: AC3
Видео: 672x480 (1.40:1), 25 fps, XviD MPEG-4 ~1646 kbps avg, 0.20 bit/pixel
Аудио: 48 kHz, AC3 Dolby Digital, 2/0 (L,R) ch, ~192 kbps
General
Complete name : C:\Users\Юличка\Documents\пиратка\Человечка нарисовал я\Человечка нарисовал я.avi
Format : AVI
Format/Info : Audio Video Interleave
File size : 697 MiB
Duration : 52mn 42s
Overall bit rate : 1 848 Kbps
Video
Format : MPEG-4 Visual
Format profile : Streaming [email protected]
Format settings, BVOP : Yes
Format settings, QPel : No
Format settings, GMC : No warppoints
Format settings, Matrix : Default
Muxing mode : Packed bitstream
Codec ID : XVID
Codec ID/Hint : XviD
Duration : 52mn 42s
Bit rate : 1 647 Kbps
Width : 672 pixels
Height : 480 pixels
Display aspect ratio : 1.400
Frame rate : 25.000 fps
Resolution : 24 bits
Colorimetry : 4:2:0
Scan type : Progressive
Bits/(Pixel*Frame) : 0.204
Stream size : 621 MiB (89%)
Writing library : XviD 1.2.0.dev47 (UTC 2006-11-01)
Audio
Format : AC-3
Format/Info : Audio Coding 3
Codec ID : 2000
Duration : 52mn 42s
Bit rate mode : Constant
Bit rate : 192 Kbps
Channel(s) : 2 channels
Channel positions : L R
Sampling rate : 48.0 KHz
Stream size : 72.4 MiB (10%)
Alignment : Split accross interleaves
Interleave, duration : 40 ms (1.00 video frame)
Interleave, preload duration : 500 ms
Download / Скачать

Хотите скачать бесплатно? Зарегистрируйтесь на сайте (ссылка на регистрацию). Pirat.ca - самый быстрый торрент трекер в рунете!

Как скачивать  ·   Что такое торрент  ·   Рейтинг и ограничения

Пост 02-Мар-2012 09:49 (спустя 40 минут)

Топик был перенесен из форума Мультипликация в форум Отечественные полнометражные мультфильмы

ThisMan
 

jumpersky

Легенда

Пост 02-Мар-2012 10:57 (спустя 1 час 49 минут)

[Q] 

[Профиль]  [ЛС] 

xdgx

Флибустьер

Пост 05-Мар-2012 19:29 (спустя 3 дня)

[Q] 

[Профиль]  [ЛС] 

CHARLI2236

1090

Пост 25-Июл-2013 19:02 (спустя 1 год 4 месяца)

[Q] 

1

_________________
[Профиль]  [ЛС] 

alex denver71

Флибустьер

Пост 14-Янв-2015 18:37 (спустя 1 год 5 месяцев)

[Q] 

Автору респект!!! Посмотрели недавно с сыном этот мультфильм-обоим понравился!
[Профиль]  [ЛС] 
Показать сообщения:    
Ответить на тему

Текущее время: Сегодня 00:36

Часовой пояс: GMT + 4



Вы не можете начинать темы
Вы не можете отвечать на сообщения
Вы не можете редактировать свои сообщения
Вы не можете удалять свои сообщения
Вы не можете голосовать в опросах
Вы не можете прикреплять файлы к сообщениям
Вы не можете скачивать файлы

▼ Вниз