ML
     
  Уважаемый Гость!
Вы можете поддержать проект и зарегистрироваться у наших партнеров - онлайн-стратегия MyLands. При регистрации в игре Вы получите код, который сможете активировать после регистрации на pirat.ca и получить 1000 дублонов.

Ваш код:
6f9ab67d502902cc72a06c406977ddb589b7f39d
 
     

Наша Маша и Волшебный орех (Егор Кончаловский) [2009 г., мультфильм, фэнтези, приключения, семейный, HDTVRip]

Ответить на тему
 
Автор
Сообщение

Пост 30-Окт-2011 15:09

[Q] 

Dj NIKI

Флибустьер

Наша Маша и Волшебный орех Год выпуска: 2009
Страна: Россия
Жанр: мультфильм, фэнтези, приключения, семейный
Продолжительность: 72 мин.
Перевод: Не требуется
Режиссер: Егор Кончаловский
В ролях: Анна Снаткина
Всеволод Полищук
Тимур Родригез
Антон Пампушный
Владимир Зайцев
Оскар Кучера
Николай Кузнецов
Описание: Школьница Маша, как и многие из нас, считает, что настоящих друзей найти в нашем мире почти невозможно. Настоящая любовь — недостижимый идеал, и, вообще, чудес не бывает. Наверное, поэтому именно с ней под Новый год начинают происходить чудеса… Она находит волшебный орех Кракатук, который переносит девочку в невероятно красивую Сказочную страну. Там ее игрушки, Буратино и плюшевый медведь, становятся мальчишками Борькой и Михеем, а робот Гоша, подаренный родителями на Новый год, самым настоящим принцем.
Но власть в Сказочной стране захватили крысы, и правит ей коварный Император. Мало того, он со своими слугами, Ником и Диком, давно охотится за волшебным орехом. Ведь Кракатук способен выполнить любое желание, а крысиный повелитель мечтает управлять всей Вселенной. Он делает Маше предложение, от каких не отказываются… К чему приведут интриги Императора? Захочет ли Маша вернуться домой, ведь тогда принц в ее мире снова станет игрушкой? К кому попадет волшебный орех в новогоднюю полночь и получится ли загадать сокровенное желание?
Качество: HDRip
Формат: AVI
Видео кодек: XviD
Аудио кодек: AC3
Видео: 704x384 (1.83:1), 25 fps, XviD build 50 ~2215 kbps avg, 0.33 bit/pixel
Аудио: 48 kHz, AC3 Dolby Digital, 2/0 (L,R) ch, ~128 kbps
General
Complete name : D:\Видео\Фильмы\Наша Маша и волшебный орех.avi
Format : AVI
Format/Info : Audio Video Interleave
File size : 1.20 GiB
Duration : 1h 12mn
Overall bit rate : 2 353 Kbps
Writing application : VirtualDubMod 1.5.10.2 (build 2542/release)
Video
ID : 0
Format : MPEG-4 Visual
Format profile : Advanced [email protected]
Format settings, BVOP : No
Format settings, QPel : No
Format settings, GMC : No warppoints
Format settings, Matrix : Custom
Codec ID : XVID
Codec ID/Hint : XviD
Duration : 1h 12mn
Bit rate : 2 215 Kbps
Width : 704 pixels
Height : 384 pixels
Display aspect ratio : 16:9
Frame rate : 25.000 fps
Color space : YUV
Chroma subsampling : 4:2:0
Bit depth : 8 bits
Scan type : Progressive
Bits/(Pixel*Frame) : 0.328
Stream size : 1.13 GiB (94%)
Writing library : XviD 1.2.1 (UTC 2008-12-04)
Audio
ID : 1
Format : AC-3
Format/Info : Audio Coding 3
Mode extension : CM (complete main)
Codec ID : 2000
Duration : 1h 12mn
Bit rate mode : Constant
Bit rate : 128 Kbps
Channel(s) : 2 channels
Channel positions : Front: L R
Sampling rate : 48.0 KHz
Video delay : 24ms
Stream size : 66.8 MiB (5%)
Alignment : Split accross interleaves
Interleave, duration : 40 ms (1.00 video frame)
Interleave, preload duration : 500 ms





Download / Скачать

Хотите скачать бесплатно? Зарегистрируйтесь на сайте (ссылка на регистрацию). Pirat.ca - самый быстрый торрент трекер в рунете!

Как скачивать  ·   Что такое торрент  ·   Рейтинг и ограничения



Последний раз редактировалось: Dj NIKI (2011-11-07 21:22), всего редактировалось 2 раз(а)

Пост 30-Окт-2011 18:55 (спустя 3 часа)

Топик был перенесен из форума Мультипликация в форум Отечественные полнометражные мультфильмы

bonifaci
 

John_Silver

Морской Волк

881

Пост 31-Окт-2011 16:56 (спустя 1 день 1 час)

[Q] 

ООО, прикольный мультик:)
После просмотра рекомендую посмотреть обзор на него от Мэддисона:)
[Профиль]  [ЛС] 

saddy

Лоцман

Пост 23-Дек-2011 19:39 (спустя 1 месяц 23 дня)

[Q] 

Спасибо
[Профиль]  [ЛС] 

urkentii

Лоцман

Пост 24-Дек-2011 18:13 (спустя 22 часа)

[Q] 

Спасибо, замечательный мультик.
[Профиль]  [ЛС] 

valambir

Лоцман

Пост 13-Янв-2012 15:48 (спустя 19 дней)

[Q] 

Его нужно в категорию +18 :) Сиськи есть, сюжета нет, из разряда "сделано сикось-накось за 5 минут" - по всем параметрам подходит.
[Профиль]  [ЛС] 

Колямба

Морской Волк

Пост 17-Янв-2012 01:33 (спустя 3 дня)

[Q] 

)))
[Профиль]  [ЛС] 

sergLyghin

Корсар

162

Пост 22-Янв-2012 16:44 (спустя 5 дней)

[Q] 

Мультик для детей 3-12 лет сыну понравился кто старше уже не нравиться но раздающему спасибо
[Профиль]  [ЛС] 

MOPRK

Флибустьер

Пост 08-Дек-2012 17:24 (спустя 10 месяцев 17 дней)

[Q] 

[Профиль]  [ЛС] 

ku6opr

Морской Волк

184

Пост 09-Май-2013 13:29 (спустя 5 месяцев)

[Q] 

Доче 4 года пересматривает с удовольствием

_________________
[Профиль]  [ЛС] 

Вут

Морской Волк

72

Пост 08-Авг-2013 06:53 (спустя 2 месяца 29 дней)

[Q] 

Дочка смотрит с удовольствием и ехидными комментариями 5,5 года На любителя
[Профиль]  [ЛС] 

mel2517

Юнга

Пост 17-Июл-2014 17:17 (спустя 11 месяцев 9 дней)

[Q] 

сыну 5,8 года смотрит с удовольствием
[Профиль]  [ЛС] 
Показать сообщения:    
Ответить на тему

Текущее время: Сегодня 16:27

Часовой пояс: GMT + 4



Вы не можете начинать темы
Вы не можете отвечать на сообщения
Вы не можете редактировать свои сообщения
Вы не можете удалять свои сообщения
Вы не можете голосовать в опросах
Вы не можете прикреплять файлы к сообщениям
Вы не можете скачивать файлы

▼ Вниз