ML
     
  Уважаемый Гость!
Вы можете поддержать проект и зарегистрироваться у наших партнеров - онлайн-стратегия MyLands. При регистрации в игре Вы получите код, который сможете активировать после регистрации на pirat.ca и получить 1000 дублонов.

Ваш код:
193c38d0130f05c24de871678ea3ac181461757d
 
     

Аленький цветочек (Лев Атаманов) [1952 г., Сказка, DVDRip]

Ответить на тему
 
Автор
Сообщение

Пост 31-Окт-2011 23:53

[Q] 

Пират Пиратович

Аленький цветочек
Страна: СССР
Год выпуска: 1952
Жанр: Сказка
Продолжительность: 00:39:46
Сценарий: С.Т. Аксаков, Георгий Гребнер
Композитор: Николай Будашкин
Режиссер: Лев Атаманов
Описание
Экранизация сказки С. Аксакова. Аленький цветочек - подарок, который младшая дочь Настенька просила отца привезти из дальних стран. Отец попадает во дворец Чудища, где срывает цветок, но за это ему грозит смерть. Дочь спасает отца, расколдовав Чудище.
Качество: DVDRip
Формат: AVI
Видео кодек: XviD
Аудио кодек: MP3
Видео: Xvid 672x496 25.00fps,1904kbps avg,0.229 bit/pixel
Аудио: Dolby AC3 48kHz stereo 192kbps [Stream 01]

General
Complete name : H:\Загрузки Torrent мультики\alenkij_tsvetochek.avi
Format : AVI
Format/Info : Audio Video Interleave
File size : 598 MiB
Duration : 39mn 40s
Overall bit rate : 2 106 Kbps
Writing application : VirtualDubMod 1.5.10.2 (build 2540/release)
Writing library : VirtualDubMod build 2540/release
Video
ID : 0
Format : MPEG-4 Visual
Format profile : Advanced [email protected]
Format settings, BVOP : 1
Format settings, QPel : No
Format settings, GMC : No warppoints
Format settings, Matrix : Default (H.263)
Muxing mode : Packed bitstream
Codec ID : XVID
Codec ID/Hint : XviD
Duration : 39mn 40s
Bit rate : 1 904 Kbps
Width : 672 pixels
Height : 496 pixels
Display aspect ratio : 4:3
Frame rate : 25.000 fps
Color space : YUV
Chroma subsampling : 4:2:0
Bit depth : 8 bits
Scan type : Progressive
Compression mode : Lossy
Bits/(Pixel*Frame) : 0.229
Stream size : 540 MiB (90%)
Writing library : XviD 1.1.0 (UTC 2005-11-22)
Audio
ID : 1
Format : AC-3
Format/Info : Audio Coding 3
Mode extension : CM (complete main)
Codec ID : 2000
Duration : 39mn 40s
Bit rate mode : Constant
Bit rate : 192 Kbps
Channel(s) : 2 channels
Channel positions : Front: L R
Sampling rate : 48.0 KHz
Bit depth : 16 bits
Compression mode : Lossy
Stream size : 54.5 MiB (9%)
Alignment : Split accross interleaves
Interleave, duration : 40 ms (1.00 video frame)
Interleave, preload duration : 500 ms





Download / Скачать

Хотите скачать бесплатно? Зарегистрируйтесь на сайте (ссылка на регистрацию). Pirat.ca - самый быстрый торрент трекер в рунете!

Как скачивать  ·   Что такое торрент  ·   Рейтинг и ограничения



Последний раз редактировалось: Пират Пиратович (2011-11-06 21:35), всего редактировалось 1 раз

Vitos

Шкипер

Пост 04-Ноя-2011 01:26 (спустя 3 дня)

[Q] 

Класс! Обожаю старые мультфильмы! Порадую ребенка...
От души благодарю.
[Профиль]  [ЛС] 

beer35

Лоцман

Пост 07-Ноя-2011 20:22 (спустя 3 дня)

[Q] 

спасибо мультики
[Профиль]  [ЛС] 

катюшка

Пост 18-Авг-2012 21:07 (спустя 9 месяцев 11 дней)

[Q] 

спасибо.
[Профиль]  [ЛС] 

[email protected]

Лоцман

Пост 09-Окт-2012 10:13 (спустя 1 месяц 21 день)

[Q] 

Всем привет! Помогите скачать. Сидов нет...
[Профиль]  [ЛС] 

CHARLI2236

1092

Пост 30-Янв-2013 12:15 (спустя 3 месяца 21 день)

[Q] 

спс

_________________
[Профиль]  [ЛС] 

Скоморох

Корсар

Пост 15-Апр-2013 14:23 (спустя 2 месяца 16 дней)

[Q] 

[Профиль]  [ЛС] 

}{rYn4iK

Морской Волк

Пост 19-Фев-2014 12:24 (спустя 10 месяцев 3 дня)

[Q] 

Спасибо)) все ради детей))
[Профиль]  [ЛС] 

NektoWaso

Флибустьер

Пост 18-Мар-2014 19:39 (спустя 27 дней)

[Q] 

отличный мультфильм!!!!!!!
[Профиль]  [ЛС] 

StounS

Шкипер

40

Пост 20-Янв-2015 05:30 (спустя 10 месяцев 1 день)

[Q] 

один из любимейших мультфильмов. такого уровня мультипликации в России уже нет. тут никакие спецэффекты не нужны. сокровище на все времена!
[Профиль]  [ЛС] 
Показать сообщения:    
Ответить на тему

Текущее время: Сегодня 18:05

Часовой пояс: GMT + 4



Вы не можете начинать темы
Вы не можете отвечать на сообщения
Вы не можете редактировать свои сообщения
Вы не можете удалять свои сообщения
Вы не можете голосовать в опросах
Вы не можете прикреплять файлы к сообщениям
Вы не можете скачивать файлы

▼ Вниз