ML
     
  Уважаемый Гость!
Вы можете поддержать проект и зарегистрироваться у наших партнеров - онлайн-стратегия MyLands. При регистрации в игре Вы получите код, который сможете активировать после регистрации на pirat.ca и получить 1000 дублонов.

Ваш код:
fcd618d94adc1456bccbde5047c9cd0930e4ae4d
 
     

Двенадцать месяцев (Михаил Ботов) [1956 г., мультфильм, семейный, DVDRip] (Original)

Ответить на тему
 
Автор
Сообщение

Пост 01-Ноя-2011 21:20

[Q] 

Пират Пиратович

Двенадцать месяцев
Год выпуска: 1956
Мировая премьера: НД
Российская премьера: НД
Дата выхода DVD: НД
Производство: СССР
Жанр: мультфильм, семейный
Продолжительность: 00:52:44
Перевод: Original
Оригинальный аудиопоток: Русский
Автор(ы) перевода: Союзмультфильм
Режиссер: Михаил Ботов
В ролях: Бедная девущка и другие...
Описание: Сказка по пьесе С.Маршака о встрече бедной девушки с двенадцатью братьями-месяцами.
Новогодняя театральная сказка Самуила Маршака много лет не сходила со сцены десятков детских театров нашей страны.
В фильме она обрела второе рождение, сохранив свою театральность и детскую непосредственность. Это история о том,
как жадность одной девочки и каприз другой едва не обрекли на гибель третью - как и положено в сказках, милую,
добрую и беззащитную. Такую же, как и подснежники, которые эта девушка все-таки нашла в новогоднем лесу.
IMDB, КиноПоиск
Источник/Качество: DVDRip
Формат: AVI
Видео кодек: DivX
Аудио кодек: MP3
Видео: 608x432 00:52:44 25fps DivX5 1.7Mbps
Аудио: 48KHz 00:52:44 Stereo 128Kbps mp3
Субтитры: Отсутствуют
General
Complete name : H:\Загрузки Torrent\Двенадцать месяцев.avi
Format : AVI
Format/Info : Audio Video Interleave
File size : 700 MiB
Duration : 52mn 44s
Overall bit rate : 1 857 Kbps
Writing application : VirtualDubMod 1.5.10.1 (build 2439/release)
Writing library : VirtualDubMod build 2439/release
Video
ID : 0
Format : MPEG-4 Visual
Format settings, BVOP : 1
Format settings, QPel : No
Format settings, GMC : No warppoints
Format settings, Matrix : Default (H.263)
Muxing mode : Packed bitstream
Codec ID : DX50
Codec ID/Hint : DivX 5
Duration : 52mn 44s
Bit rate : 1 719 Kbps
Width : 608 pixels
Height : 432 pixels
Display aspect ratio : 1.407
Frame rate : 25.000 fps
Color space : YUV
Chroma subsampling : 4:2:0
Bit depth : 8 bits
Scan type : Progressive
Compression mode : Lossy
Bits/(Pixel*Frame) : 0.262
Stream size : 648 MiB (93%)
Writing library : DivX 5.2.1 (WaffleDay) (UTC 2004-09-08)
Audio
ID : 1
Format : MPEG Audio
Format version : Version 1
Format profile : Layer 3
Mode : Joint stereo
Mode extension : MS Stereo
Codec ID : 55
Codec ID/Hint : MP3
Duration : 52mn 44s
Bit rate mode : Constant
Bit rate : 128 Kbps
Channel(s) : 2 channels
Sampling rate : 48.0 KHz
Compression mode : Lossy
Stream size : 48.3 MiB (7%)
Alignment : Aligned on interleaves
Interleave, duration : 40 ms (1.00 video frame)
Interleave, preload duration : 504 ms





Download / Скачать

Хотите скачать бесплатно? Зарегистрируйтесь на сайте (ссылка на регистрацию). Pirat.ca - самый быстрый торрент трекер в рунете!

Как скачивать  ·   Что такое торрент  ·   Рейтинг и ограничения



Последний раз редактировалось: Пират Пиратович (2011-11-06 21:37), всего редактировалось 1 раз

Пост 01-Ноя-2011 23:16 (спустя 1 час 55 минут)

Топик был перенесен из форума Мультипликация в форум Отечественные полнометражные мультфильмы

ilka
 

Alienxedos

Штурман

6

Пост 02-Ноя-2011 19:43 (спустя 22 часа)

[Q] 

Спасибо
[Профиль]  [ЛС] 

Воффка

Морской Волк

Пост 03-Ноя-2011 05:53 (спустя 10 часов)

[Q] 

Начинаем по новой... Спасибо раздающему!!!!!! Поддержу

_________________
-= Водка, шлюхи, Death Metal!!!=-
[Профиль]  [ЛС] 

Vitos

Шкипер

Пост 04-Ноя-2011 01:23 (спустя 19 часов)

[Q] 

Старые добрые мультфильмы.
Раздающему спасибо!
[Профиль]  [ЛС] 

руслан84

Морской Волк

Пост 09-Мар-2012 19:50 (спустя 4 месяца 5 дней)

[Q] 


_________________
С уважением .
[Профиль]  [ЛС] 

CHARLI2236

1097

Пост 30-Янв-2013 12:17 (спустя 10 месяцев 20 дней)

[Q] 

спс

_________________
[Профиль]  [ЛС] 

ScorpioKZ

Шкипер

Пост 17-Фев-2014 10:02 (спустя 1 год)

[Q] 

сразу детство вспомнилось )))
!COOL!
Автору респект!!!
[Профиль]  [ЛС] 

NektoWaso

Флибустьер

Пост 19-Мар-2014 09:03 (спустя 1 месяц 1 день)

[Q] 

отличный мультфильм, не стареющий!!!!!!!!!
[Профиль]  [ЛС] 

alex denver71

Флибустьер

Пост 09-Янв-2015 20:17 (спустя 9 месяцев 21 день)

[Q] 

Автору респект!!! Как в детстве нравился этот замечательный мультфильм,так и сейчас не отказываюсь с сыном посмотреть на Новогодние праздники!!! Всем качать!!! Только в описании написано:Режиссер: Михаил Ботов,а про такого талантливого режиссера как Иван Иванов-Вано ни слова,ни пол слова. Автору за данный мульт Суперский мультфильм!!!
[Профиль]  [ЛС] 

Пират Пиратович ®

2990

Пост 09-Янв-2015 23:45 (спустя 3 часа)

[Q] 

alex denver71, Дело в том, что для создания раздачи присутствует шаблон для заполнения, а там поля для ввода - Режиссёр-постановщик: Иван Иванов-Вано нету. Может поэтому не дополнил автор раздачи, поленился))

_________________
[Профиль]  [ЛС] 

alex denver71

Флибустьер

Пост 10-Янв-2015 10:52 (спустя 11 часов)

[Q] 

Пират Пиратович все понял,спасибо за разъяснение :) Пиратка рулит!
[Профиль]  [ЛС] 

StounS

Шкипер

40

Пост 20-Янв-2015 05:26 (спустя 9 дней)

[Q] 

мой любимый мультфильм.
Смотрю в восторге, как 25 лет назад. Спасибо!
[Профиль]  [ЛС] 

FINN54

Гроза морей

Пост 01-Июл-2015 14:36 (спустя 5 месяцев 12 дней)

[Q] 

Старые мультики-это классика
[Профиль]  [ЛС] 
Показать сообщения:    
Ответить на тему

Текущее время: Сегодня 12:49

Часовой пояс: GMT + 4



Вы не можете начинать темы
Вы не можете отвечать на сообщения
Вы не можете редактировать свои сообщения
Вы не можете удалять свои сообщения
Вы не можете голосовать в опросах
Вы не можете прикреплять файлы к сообщениям
Вы не можете скачивать файлы

▼ Вниз