ML
     
  Уважаемый Гость!
Вы можете поддержать проект и зарегистрироваться у наших партнеров - онлайн-стратегия MyLands. При регистрации в игре Вы получите код, который сможете активировать после регистрации на pirat.ca и получить 1000 дублонов.

Ваш код:
5f4e94775bc0501caff7b254e79328d304c817d9
 
     

Приключения Буратино (Дмитрий Бабиченко, Иван Иванов-Вано) [1959 г., мультфильм, фэнтези, приключения, семейный, VHSRip]

Ответить на тему
 
Автор
Сообщение

Пост 04-Ноя-2011 00:57

[Q] 

Пират Пиратович

Приключения Буратино
Год выпуска: 1959
Производство: СССР
Жанр: мультфильм, фэнтези, приключения, семейный
Продолжительность: 01:04:21
Режиссер: Дмитрий Бабиченко, Иван Иванов-Вано
В ролях: Буратино и другие...
Описание: Экранизация сказки А.Толстого.
Старый мастер Джузеппе вырезал из дерева забавного мальчика и назвал его Буратино. Деревянный мальчик ожил, но прежде чем он станет настоящим человеком, ему предстоит пройти через множество испытаний и приключений. Доброта, смелость и находчивость помогут Буратино победить жестокость и алчность, найти бескорыстных и верных друзей…
КиноПоиск
Источник/Качество: VHSRip
Формат: AVI
Видео кодек: DivX
Аудио кодек: AC3
Видео: 608x448 01:04:21 25fps DivX5 1.1Mbps
Аудио: 48KHz 01:04:21 6 chanels 320Kbps
General
Complete name : H:\Загрузки Torrent\Приключения Буратино.avi
Format : AVI
Format/Info : Audio Video Interleave
File size : 699 MiB
Duration : 1h 4mn
Overall bit rate : 1 519 Kbps
Movie name : Приключения Буратино, 1959
Director : RDA Team
Genre : Child's/Family
Writing application : VirtualDubMod 1.5.10.1 (build 2389/release)
Original source form/Name : Cartoon
Copyright : © 2004
Video
ID : 0
Format : MPEG-4 Visual
Format settings, BVOP : 1
Format settings, QPel : No
Format settings, GMC : No warppoints
Format settings, Matrix : Default (H.263)
Muxing mode : Packed bitstream
Codec ID : DX50
Codec ID/Hint : DivX 5
Duration : 1h 4mn
Bit rate : 1 191 Kbps
Width : 608 pixels
Height : 448 pixels
Display aspect ratio : 4:3
Frame rate : 25.000 fps
Color space : YUV
Chroma subsampling : 4:2:0
Bit depth : 8 bits
Scan type : Progressive
Compression mode : Lossy
Bits/(Pixel*Frame) : 0.175
Stream size : 548 MiB (78%)
Writing library : DivX 5.2.0 (UTC 2004-07-15)
Audio
ID : 1
Format : AC-3
Format/Info : Audio Coding 3
Mode extension : CM (complete main)
Codec ID : 2000
Duration : 1h 4mn
Bit rate mode : Constant
Bit rate : 320 Kbps
Channel(s) : 6 channels
Channel positions : Front: L C R, Side: L R, LFE
Sampling rate : 48.0 KHz
Bit depth : 16 bits
Compression mode : Lossy
Delay relative to video : 320ms
Stream size : 147 MiB (21%)
Alignment : Split accross interleaves
Interleave, duration : 64 ms (1.60 video frames)
Interleave, preload duration : 64 ms







Download / Скачать

Хотите скачать бесплатно? Зарегистрируйтесь на сайте (ссылка на регистрацию). Pirat.ca - самый быстрый торрент трекер в рунете!

Как скачивать  ·   Что такое торрент  ·   Рейтинг и ограничения



Последний раз редактировалось: Пират Пиратович (2011-11-06 22:05), всего редактировалось 1 раз

Пост 04-Ноя-2011 01:18 (спустя 21 минута)

Топик был перенесен из форума Мультипликация в форум Отечественные полнометражные мультфильмы

zyyx
 

Vitos

Шкипер

Пост 04-Ноя-2011 01:22 (спустя 25 минут)

[Q] 

Благодарю за раздачу!
[Профиль]  [ЛС] 

Александр 198001

Шкипер

Пост 23-Янв-2012 22:51 (спустя 2 месяца 19 дней)

[Q] 

Спасибо!
[Профиль]  [ЛС] 

abc7

Гроза морей

464

Пост 04-Фев-2012 19:32 (спустя 11 дней)

[Q] 

Раздаче быть!!! Спасибо. Поддержу!
[Профиль]  [ЛС] 

buba-79

Флибустьер

Пост 03-Апр-2012 20:46 (спустя 1 месяц 28 дней)

[Q] 

[Профиль]  [ЛС] 

pro100userspb

Корсар

Пост 20-Сен-2012 20:09 (спустя 5 месяцев 16 дней)

[Q] 


_________________
[Профиль]  [ЛС] 

merzsergio

Шкипер

Пост 21-Сен-2012 17:31 (спустя 21 час)

[Q] 

спасибо...мои детки очень радуют anime41 ся
[Профиль]  [ЛС] 

afroritka

Лоцман

Пост 09-Дек-2012 18:08 (спустя 2 месяца 18 дней)

[Q] 

Спасибо 10раз! Еле нашла этот мультик :)
[Профиль]  [ЛС] 

anatolijrudnev

Корсар

Пост 15-Дек-2012 14:14 (спустя 5 дней)

[Q] 

[Профиль]  [ЛС] 

Skam782712

Шкипер

Пост 30-Янв-2013 06:44 (спустя 1 месяц 14 дней)

[Q] 

[Профиль]  [ЛС] 

CHARLI2236

1089

Пост 30-Янв-2013 12:19 (спустя 5 часов)

[Q] 

спс

_________________
[Профиль]  [ЛС] 

andrey1366613666

Штурман

Пост 03-Окт-2013 12:14 (спустя 8 месяцев 3 дня)

[Q] 

Спасибо!! Автору респект!!!
[Профиль]  [ЛС] 

ValeraTerechenko

Корсар

142

Пост 05-Фев-2014 19:39 (спустя 4 месяца 2 дня)

[Q] 

Да было время)
[Профиль]  [ЛС] 

Han.M

Флибустьер

Пост 24-Фев-2014 21:52 (спустя 19 дней)

[Q] 

Классика!!!! автору спасибо
[Профиль]  [ЛС] 

NektoWaso

Флибустьер

Пост 07-Апр-2014 10:01 (спустя 1 месяц 10 дней)

[Q] 

классика мультипликации! супер!!!
[Профиль]  [ЛС] 

FINN54

Гроза морей

Пост 01-Июл-2015 14:40 (спустя 1 год 2 месяца)

[Q] 

Супер! Сейчас такие не снимают
[Профиль]  [ЛС] 
Показать сообщения:    
Ответить на тему

Текущее время: Сегодня 15:38

Часовой пояс: GMT + 4



Вы не можете начинать темы
Вы не можете отвечать на сообщения
Вы не можете редактировать свои сообщения
Вы не можете удалять свои сообщения
Вы не можете голосовать в опросах
Вы не можете прикреплять файлы к сообщениям
Вы не можете скачивать файлы

▼ Вниз