ML
     
  Уважаемый Гость!
Вы можете поддержать проект и зарегистрироваться у наших партнеров - онлайн-стратегия MyLands. При регистрации в игре Вы получите код, который сможете активировать после регистрации на pirat.ca и получить 1000 дублонов.

Ваш код:
0fcd44bd35319f69313aa6e53b31c51cbff1c942
 
     

Остров сокровищ (Черкасский Д.) [1988 г., Музыкальный мультфильм, DVDRip]

Ответить на тему
 
Автор
Сообщение

Пост 28-Окт-2011 08:41

[Q] 

качала

Лоцман

Остров сокровищ
Год выпуска: 1988
Страна: СССР
Жанр: Музыкальный мультфильм
Продолжительность: 01:46:50
Режиссер: Черкасский Д.
В ролях: Армен Джигарханян, Андриенко В., Бессараб В., Вознюк Б., Кишко Г., Паерный Е., Толчинский Г.
Описание: Цветной, рисованный, полнометражный мультипликационный фильм по мотивам романа Роберта Льюиса Стивенсона состоит из двух частей и сделан в нетрадиционной манере - он совмещает рисунок с игровыми моментами, в нем современная музыка и песни. Первая часть называется "Карта капитана Флинта" (1986), вторая - "Сокровища капитана Флинта" (1988). Все персонажи и ситуации выписаны карикатурно, с юмором, действие подано в комедийном ключе и развертывается весьма динамично.
Качество: DVDRip
Формат: AVI
Видео кодек: XviD
Аудио кодек: MP3
Видео: XVID 576x432 25.00fps 1622Kbps, 0.260 bit/ pixel
Аудио: MPEG Audio Layer 3 48000Hz stereo 128Kbps
Полное имя : D:\Фильмы\Остров сокровищ\ostrov.sokrovish.part1.avi
Формат : AVI
Формат/Информация : Audio Video Interleave
Размер файла : 598 Мбайт
Продолжительность : 47 м.
Общий поток : 1757 Кбит/сек
Название фильма : Остров сокровищ. 1-я серия.
Режиссёр : agor
Программа кодирования : VirtualDubMod 1.5.10.1 (build 2439/release)
Библиотека кодирования : VirtualDubMod build 2439/release
Формат оригинала/Имя : Cartoon
Идентификатор : 0
Формат : MPEG-4 Visual
Профиль формата : Advanced [email protected]
Параметр BVOP формата : 2
Параметр QPel формата : Нет
Параметр GMC формата : Без точки перехода
Параметр матрицы формата : Default (MPEG)
Идентификатор кодека : XVID
Идентификатор кодека/Подсказка : XviD
Продолжительность : 47 м.
Битрейт : 1620 Кбит/сек
Ширина : 576 пикселей
Высота : 432 пикселя
Соотношение сторон : 4:3
Частота кадров : 25,000 кадров/сек
Цветовое пространство : YUV
Субдискретизация насыщенности : 4:2:0
Битовая глубина : 8 бит
Тип развёртки : Прогрессивная
Метод сжатия : С потерями
Бит/(Пиксели*Кадры) : 0.260
Размер потока : 551 Мбайт (92%)
Библиотека кодирования : XviD 1.1.2 (UTC 2006-11-01)
Идентификатор : 1
Формат : MPEG Audio
Версия формата : Version 1
Профиль формата : Layer 3
Режим : Joint stereo
Расширение режима : MS Stereo
Идентификатор кодека : 55
Идентификатор кодека/Подсказка : MP3
Продолжительность : 47 м.
Вид битрейта : Постоянный
Битрейт : 128 Кбит/сек
Каналы : 2 канала
Частота : 48,0 КГц
Метод сжатия : С потерями
Задержка видео : 48 мс.
Размер потока : 43,5 Мбайт (7%)
Выравнивание : Соединение по промежуткам
Продолжительность промежутка : 40 мс. (1,00 видеокадр)
Время предзагрузки промежутка : 504 мс.
Полное имя : D:\Фильмы\Остров сокровищ\ostrov.sokrovish.part2.avi
Формат : AVI
Формат/Информация : Audio Video Interleave
Размер файла : 803 Мбайт
Продолжительность : 59 м.
Общий поток : 1893 Кбит/сек
Название фильма : Остров сокровищ. 2-я серия.
Режиссёр : agor
Программа кодирования : VirtualDubMod 1.5.10.1 (build 2439/release)
Библиотека кодирования : VirtualDubMod build 2439/release
Формат оригинала/Имя : Cartoon
Идентификатор : 0
Формат : MPEG-4 Visual
Профиль формата : Advanced [email protected]
Параметр BVOP формата : 2
Параметр QPel формата : Нет
Параметр GMC формата : Без точки перехода
Параметр матрицы формата : Default (MPEG)
Идентификатор кодека : XVID
Идентификатор кодека/Подсказка : XviD
Продолжительность : 59 м.
Битрейт : 1755 Кбит/сек
Ширина : 576 пикселей
Высота : 432 пикселя
Соотношение сторон : 4:3
Частота кадров : 25,000 кадров/сек
Цветовое пространство : YUV
Субдискретизация насыщенности : 4:2:0
Битовая глубина : 8 бит
Тип развёртки : Прогрессивная
Метод сжатия : С потерями
Бит/(Пиксели*Кадры) : 0.282
Размер потока : 744 Мбайт (93%)
Библиотека кодирования : XviD 1.1.2 (UTC 2006-11-01)
Идентификатор : 1
Формат : MPEG Audio
Версия формата : Version 1
Профиль формата : Layer 3
Режим : Joint stereo
Расширение режима : MS Stereo
Идентификатор кодека : 55
Идентификатор кодека/Подсказка : MP3
Продолжительность : 59 м.
Вид битрейта : Постоянный
Битрейт : 128 Кбит/сек
Каналы : 2 канала
Частота : 48,0 КГц
Метод сжатия : С потерями
Задержка видео : 1 с. 560 мс.
Размер потока : 54,3 Мбайт (7%)
Выравнивание : Разделение по промежуткам
Продолжительность промежутка : 40 мс. (1,00 видеокадр)
Время предзагрузки промежутка : 504 мс.






Download / Скачать

Хотите скачать бесплатно? Зарегистрируйтесь на сайте (ссылка на регистрацию). Pirat.ca - самый быстрый торрент трекер в рунете!

Как скачивать  ·   Что такое торрент  ·   Рейтинг и ограничения



Последний раз редактировалось: качала (2011-10-29 08:20), всего редактировалось 4 раз(а)

Пост 29-Окт-2011 10:26 (спустя 1 день 1 час)

Топик был перенесен из форума Мультипликация в форум Отечественные полнометражные мультфильмы

bonifaci
 

slave_hard

Штурман

Пост 29-Окт-2011 17:29 (спустя 1 день 8 часов)

[Q] 

Скачаю и постою у штурвала..
Самый отличный мультик сделаный нашими людьми,до которого америкосам с их диснеем и прочей хренью как до луны пешком...
[Профиль]  [ЛС] 

captanantiel

1711

Пост 05-Ноя-2011 00:22 (спустя 6 дней)

[Q] 

качала, Благодарю!

_________________
Если тебя укусила собака не отвечай ей тем же. 
[Профиль]  [ЛС] 

VIP

Шкипер

Пост 22-Янв-2012 23:50 (спустя 2 месяца 17 дней)

[Q] 

aa
[Профиль]  [ЛС] 

C0y0te

1422

Пост 11-Май-2012 21:02 (спустя 3 месяца 19 дней)

[Q] 

[Профиль]  [ЛС] 

качала ®

Лоцман

93

Пост 18-Май-2012 19:53 (спустя 6 дней)

[Q] 

подключил скоростной интернет, снова встал на раздачу af
[Профиль]  [ЛС] 

karabas93

Лоцман

Пост 23-Май-2012 03:43 (спустя 4 дня)

[Q] 

спасибо за раздачу, давно искал
[Профиль]  [ЛС] 

superataman

Морской Волк

150

Пост 09-Июн-2012 11:10 (спустя 17 дней)

[Q] 


_________________
[Профиль]  [ЛС] 

rvv

Штурман

Пост 11-Июн-2012 06:03 (спустя 1 день 18 часов)

[Q] 

Скачаю и постою у штурвала..
Самый отличный мультик сделаный нашими людьми,до которого америкосам с их диснеем и прочей хренью как до луны пешком...
согласен

_________________
нас было шестеро против девятнадцати
[Профиль]  [ЛС] 

Billy_Bons

Шкипер

Пост 13-Июн-2012 20:57 (спустя 2 дня 14 часов)

[Q] 

Спасибо!
[Профиль]  [ЛС] 

Hausser

Гроза морей

Пост 17-Июн-2012 07:13 (спустя 3 дня)

[Q] 

[Профиль]  [ЛС] 

lis777

Корсар

Пост 07-Июл-2012 15:42 (спустя 20 дней)

[Q] 

[Профиль]  [ЛС] 

gnomichello

Лоцман

Пост 01-Окт-2012 01:23 (спустя 2 месяца 23 дня)

[Q] 

Классный мультик.Смотреть всей семьей в любом возрасте.
СПАСИБО!!!
[Профиль]  [ЛС] 

Алоизий

Флибустьер

Пост 05-Ноя-2012 10:56 (спустя 1 месяц 4 дня)

[Q] 

[Профиль]  [ЛС] 

andrey1366613666

Штурман

Пост 03-Окт-2013 12:17 (спустя 10 месяцев 28 дней)

[Q] 

Спасибо!!! Супер!
[Профиль]  [ЛС] 

СерКат

Корсар

Пост 30-Ноя-2013 20:33 (спустя 1 месяц 27 дней)

[Q] 

один из лучших наших мульт
[Профиль]  [ЛС] 

ash81

Лоцман

Пост 06-Апр-2014 14:25 (спустя 4 месяца 5 дней)

[Q] 

456628один из лучших наших мульт
Согласен! отличный мультик!
[Профиль]  [ЛС] 

Trianon777

Морской Волк

Пост 15-Ноя-2014 02:02 (спустя 7 месяцев 8 дней)

[Q] 

СПАСИБО за раздачу!!! Один из шедевров советской мультипликации :))) Однозначно, - в коллекцию!
Рекомендуется к просмотру всем :-) ;-)
[Профиль]  [ЛС] 

Egoist31

Корсар

Пост 07-Янв-2015 14:48 (спустя 1 месяц 22 дня)

[Q] 

Спасибо!!!
Лови бочку
[Профиль]  [ЛС] 

Zloy

Корсар

Пост 20-Фев-2015 15:45 (спустя 1 месяц 13 дней)

[Q] 

Мульт Супер! Крейсер мне в бухту !!! Лови бочку
[Профиль]  [ЛС] 

FINN54

Гроза морей

Пост 24-Июн-2015 03:15 (спустя 4 месяца 3 дня)

[Q] 

Прекрасный мультик,а сколько из него можно пиратских аватарок наделать-ух
[Профиль]  [ЛС] 

Apostle358

Корсар

151

Пост 30-Мар-2016 08:56 (спустя 9 месяцев 6 дней)

[Q] 

Не уходите с раздачи ребята! Мультфильм - шедевр! Лови бочку!
[Профиль]  [ЛС] 
Показать сообщения:    
Ответить на тему

Текущее время: Сегодня 02:14

Часовой пояс: GMT + 4



Вы не можете начинать темы
Вы не можете отвечать на сообщения
Вы не можете редактировать свои сообщения
Вы не можете удалять свои сообщения
Вы не можете голосовать в опросах
Вы не можете прикреплять файлы к сообщениям
Вы не можете скачивать файлы

▼ Вниз