ML
     
  Уважаемый Гость!
Вы можете поддержать проект и зарегистрироваться у наших партнеров - онлайн-стратегия MyLands. При регистрации в игре Вы получите код, который сможете активировать после регистрации на pirat.ca и получить 1000 дублонов.

Ваш код:
0fcd44bd35319f69313aa6e53b31c51cbff1c942
 
     

Маугли (Роман Давыдов) [1967 г., мультфильм, приключения, семейный, VHSRip]

Ответить на тему
 
Автор
Сообщение

Пост 08-Ноя-2011 16:00

[Q] 

Пират Пиратович

Маугли
Год выпуска: 1967-1971 гг.
Производство: СССР
Жанр: мультфильм, приключения, семейный
Продолжительность: 01:35:37
Режиссер: Роман Давыдов
Описание: Одноимённая экранизация повести Киплинга о мальчике, воспитанном волчьей стаей, ставшим своим в джунглях, победившим своего врага - тигра Шерхана, совершившем ещё многие подвиги, и, в конце концов, ушедшем к людям.
Доп. информация: Монтажный фильм на основе пяти фильмов: "Ракша", "Похищение", "Последняя охота Акелы", "Битва", "Возвращение к людям"
Источник/Качество: VHSRip
Формат: AVI
Видео кодек: DivX
Аудио кодек: AC3
Видео: 720x544 01:35:37 25fps DivX5 1.7Mbps
Аудио: 48KHz 01:35:35 6 chanels 384Kbps
General
Complete name : H:\Загрузки Torrent\Маугли.avi
Format : AVI
Format/Info : Audio Video Interleave
File size : 1.46 GiB
Duration : 1h 35mn
Overall bit rate : 2 184 Kbps
Writing application : VirtualDubMod 1.5.4.1 (build 2178/release)
Writing library : VirtualDubMod build 2178/release
Video
ID : 0
Format : MPEG-4 Visual
Format settings, BVOP : 1
Format settings, QPel : No
Format settings, GMC : No warppoints
Format settings, Matrix : Default (H.263)
Muxing mode : Packed bitstream
Codec ID : DX50
Codec ID/Hint : DivX 5
Duration : 1h 35mn
Bit rate : 1 793 Kbps
Width : 720 pixels
Height : 544 pixels
Display aspect ratio : 4:3
Frame rate : 25.000 fps
Color space : YUV
Chroma subsampling : 4:2:0
Bit depth : 8 bits
Scan type : Progressive
Compression mode : Lossy
Bits/(Pixel*Frame) : 0.183
Stream size : 1.20 GiB (82%)
Writing library : DivX 6.2.5 (UTC 2006-07)
Audio
ID : 1
Format : AC-3
Format/Info : Audio Coding 3
Mode extension : CM (complete main)
Codec ID : 2000
Duration : 1h 35mn
Bit rate mode : Constant
Bit rate : 384 Kbps
Channel(s) : 6 channels
Channel positions : Front: L C R, Side: L R, LFE
Sampling rate : 48.0 KHz
Bit depth : 16 bits
Compression mode : Lossy
Delay relative to video : 1s 0ms
Stream size : 263 MiB (18%)
Alignment : Split accross interleaves
Interleave, duration : 96 ms (2.40 video frames)
Interleave, preload duration : 96 ms







Download / Скачать

Хотите скачать бесплатно? Зарегистрируйтесь на сайте (ссылка на регистрацию). Pirat.ca - самый быстрый торрент трекер в рунете!

Как скачивать  ·   Что такое торрент  ·   Рейтинг и ограничения

Пост 08-Ноя-2011 16:24 (спустя 24 минуты)

Топик был перенесен из форума Мультипликация в форум Отечественные полнометражные мультфильмы

zyyx
 

Inspektor

Корсар

4

Пост 02-Дек-2011 21:46 (спустя 24 дня)

[Q] 

А есть ли в этой раздаче эпизод когда маугли добыл клинок (или огненный цветок, уже подзабыл) в пещере? А то последнее время потелику показывают какую-то урезанною версию, где он уже шагает с клинком (цветком).

_________________
[Профиль]  [ЛС] 

abc7

Гроза морей

464

Пост 04-Фев-2012 19:34 (спустя 2 месяца 1 день)

[Q] 

Спасибо!
[Профиль]  [ЛС] 

pp2141

Гроза морей

Пост 16-Ноя-2012 17:30 (спустя 9 месяцев 11 дней)

[Q] 

Бочка
[Профиль]  [ЛС] 

anatolijrudnev

Корсар

Пост 22-Ноя-2012 20:16 (спустя 6 дней)

[Q] 

[Профиль]  [ЛС] 

MOPRK

Флибустьер

Пост 08-Дек-2012 17:20 (спустя 15 дней)

[Q] 

[Профиль]  [ЛС] 

CHARLI2236

1096

Пост 30-Янв-2013 12:10 (спустя 1 месяц 21 день)

[Q] 

спс

_________________
[Профиль]  [ЛС] 

Zha-pol

Легенда

Пост 04-Сен-2013 21:21 (спустя 7 месяцев 5 дней)

[Q] 

Супер!

_________________
[Профиль]  [ЛС] 

NektoWaso

Флибустьер

Пост 23-Мар-2014 23:24 (спустя 6 месяцев 19 дней)

[Q] 

выдающийся мультфильм, один из лучших!!!!!!
[Профиль]  [ЛС] 
Показать сообщения:    
Ответить на тему

Текущее время: Сегодня 02:10

Часовой пояс: GMT + 4



Вы не можете начинать темы
Вы не можете отвечать на сообщения
Вы не можете редактировать свои сообщения
Вы не можете удалять свои сообщения
Вы не можете голосовать в опросах
Вы не можете прикреплять файлы к сообщениям
Вы не можете скачивать файлы

▼ Вниз