ML
     
  Уважаемый Гость!
Вы можете поддержать проект и зарегистрироваться у наших партнеров - онлайн-стратегия MyLands. При регистрации в игре Вы получите код, который сможете активировать после регистрации на pirat.ca и получить 1000 дублонов.

Ваш код:
c89b4b6523eaac3173e9a9c062ac1a19db575961
 
     

Приключения капитана Врунгеля (Давид Черкасский) [1976 г., мультфильм, мюзикл, боевик, приключения]

Ответить на тему
 
Автор
Сообщение

Пост 08-Ноя-2011 17:03

[Q] 

Пират Пиратович

Приключения капитана Врунгеля
Год выпуска: 1976
Производство: СССР
Жанр: мультфильм, мюзикл, боевик, приключения
Продолжительность: 01:57:14
Режиссер: Давид Черкасский
Описание: Готовилась кругосветная морская регата. Знаменитые капитаны всего мира получили приглашение участвовать в небывалом соревновании. Самые крупные ставки сделаны на яхту капитана Врунгеля «Беда» и иностранную «Черную Каракатицу». А в это же самое время в Королевском музее искусств совершается «Похищение века» – украдена статуя Венеры. По указанию Шефа гангстеров вор Фукс должен пронести ее на «Черную Каракатицу». Но капитан Врунгель зачислил Фукса матросом на «Беду»… Гангстеры Джулико Бандитто и де ля Воро Гангстеритто, ни о чем не подозревая, отправились встречать «товар». Расследовать дело поручено суперагенту Ноль Ноль Икс… В одном файле все 13 серий.
Доп. информация: В одном файле все 13 серий.
КиноПоиск
Формат: AVI
Видео кодек: XviD
Аудио кодек: MP3
Видео: 720x544 01:57:14 25fps XviD 2.1Mbps
Аудио: 44KHz 01:57:14 Stereo 127Kbps mp3
General
Complete name : H:\Загрузки Torrent\Приключения капитана Врунгеля.avi
Format : AVI
Format/Info : Audio Video Interleave
File size : 1.86 GiB
Duration : 1h 57mn
Overall bit rate : 2 273 Kbps
Movie name : Капитан Врунгель
Director : МАРИО
Writing application : VirtualDubMod 1.5.10.1 Рус от Stvens Inc.™ www.stvens.amillo.net (build 2439/release)
Writing library : VirtualDub build 24442/release
Copyright : СЕРГЕЙ СВЕТЛОВ
Video
ID : 0
Format : MPEG-4 Visual
Format profile : Advanced [email protected]
Format settings, BVOP : 2
Format settings, QPel : No
Format settings, GMC : No warppoints
Format settings, Matrix : Default (MPEG)
Muxing mode : Packed bitstream
Codec ID : XVID
Codec ID/Hint : XviD
Duration : 1h 57mn
Bit rate : 2 136 Kbps
Width : 720 pixels
Height : 544 pixels
Display aspect ratio : 4:3
Frame rate : 25.000 fps
Color space : YUV
Chroma subsampling : 4:2:0
Bit depth : 8 bits
Scan type : Progressive
Compression mode : Lossy
Bits/(Pixel*Frame) : 0.218
Stream size : 1.75 GiB (94%)
Writing library : XviD 1.1.2 (UTC 2006-11-01)
Audio
ID : 1
Format : MPEG Audio
Format version : Version 1
Format profile : Layer 3
Mode : Joint stereo
Mode extension : MS Stereo
Codec ID : 55
Codec ID/Hint : MP3
Duration : 1h 57mn
Bit rate mode : Constant
Bit rate : 128 Kbps
Channel(s) : 2 channels
Sampling rate : 44.1 KHz
Compression mode : Lossy
Stream size : 107 MiB (6%)
Alignment : Split accross interleaves
Interleave, duration : 40 ms (1.00 video frame)
Interleave, preload duration : 501 ms








Download / Скачать

Хотите скачать бесплатно? Зарегистрируйтесь на сайте (ссылка на регистрацию). Pirat.ca - самый быстрый торрент трекер в рунете!

Как скачивать  ·   Что такое торрент  ·   Рейтинг и ограничения

Luzhok

Легенда

Пост 09-Ноя-2011 12:07 (спустя 19 часов)

[Q] 

ilka,
спасибо!
[Профиль]  [ЛС] 

LEMKE

Легенда

Пост 09-Ноя-2011 22:02 (спустя 9 часов)

[Q] 

Спасибо! ay
[Профиль]  [ЛС] 

CHARLI2236

1098

Пост 13-Дек-2011 14:07 (спустя 1 месяц 3 дня)

[Q] 

спасибо

_________________
[Профиль]  [ЛС] 

Пост 30-Янв-2012 16:56 (спустя 1 месяц 17 дней)

Топик был перенесен из форума Мультсериалы в форум Отечественные полнометражные мультфильмы

CaptRom
 

Fire5

Лоцман

Пост 31-Янв-2012 17:53 (спустя 1 месяц 18 дней)

[Q] 

[Профиль]  [ЛС] 

vovav-1924

Флибустьер

Пост 05-Фев-2012 20:55 (спустя 5 дней)

[Q] 

[Профиль]  [ЛС] 

Ospan

Корсар

Пост 08-Мар-2012 23:35 (спустя 1 месяц 3 дня)

[Q] 

[Профиль]  [ЛС] 

abc7

Гроза морей

464

Пост 12-Мар-2012 23:45 (спустя 4 дня)

[Q] 

[Профиль]  [ЛС] 

shemisheika

Морской Волк

Пост 16-Мар-2012 07:47 (спустя 3 дня)

[Q] 

хороший мультик
[Профиль]  [ЛС] 

polozm

Легенда

Пост 03-Апр-2012 19:17 (спустя 18 дней)

[Q] 

спасибки большое

_________________
mac mini -2.0 GHz Intel Core i7/ 8 GB DDR3. /Intel HD 3000(512mb)OS X 10.9 Mavericks
[Профиль]  [ЛС] 

Pesok

Гроза морей

Пост 02-Авг-2012 23:14 (спустя 3 месяца 29 дней)

[Q] 

спасибо!

_________________
[Профиль]  [ЛС] 

катюшка

Пост 18-Авг-2012 21:16 (спустя 15 дней)

[Q] 

bo хороший мультик!!!!!!!!!!!!!. aa
[Профиль]  [ЛС] 

Алоизий

Флибустьер

Пост 05-Ноя-2012 11:01 (спустя 2 месяца 17 дней)

[Q] 

Спасибо. Вспомнил детство.
[Профиль]  [ЛС] 

pp2141

Гроза морей

Пост 16-Ноя-2012 17:28 (спустя 11 дней)

[Q] 

Спасибо
[Профиль]  [ЛС] 

Gera70

Морской Волк

Пост 27-Дек-2012 10:47 (спустя 1 месяц 10 дней)

[Q] 

[Профиль]  [ЛС] 

vetamax

Шкипер

7

Пост 14-Янв-2013 14:15 (спустя 18 дней)

[Q] 

спасибо.мои дети в восторге.
[Профиль]  [ЛС] 

egismac

Гроза морей

Пост 25-Янв-2013 13:37 (спустя 10 дней)

[Q] 

посмотрим, спасибо.
[Профиль]  [ЛС] 

aleks 456

Лоцман

Пост 18-Фев-2014 18:45 (спустя 1 год)

[Q] 

спасибо огромное
[Профиль]  [ЛС] 

Securityuser

Флибустьер

Пост 14-Июл-2014 12:00 (спустя 4 месяца 23 дня)

[Q] 

Спасибо за раздачу!!!
[Профиль]  [ЛС] 

alex denver71

Флибустьер

Пост 09-Янв-2015 19:25 (спустя 5 месяцев 26 дней)

[Q] 

Автору респект!!! Это уж точно хороший мультик!!! Сыну очень нравится,да и самому в детстве нравился. Мы бандито, ганстирито...
[Профиль]  [ЛС] 

Пират Пиратович ®

2991

Пост 09-Янв-2015 23:34 (спустя 4 часа)

[Q] 

Спасибо за Спасибо

_________________
[Профиль]  [ЛС] 

fiona-d

Шкипер

32

Пост 25-Мар-2015 16:38 (спустя 2 месяца 15 дней)

[Q] 

ой, спасибо великое! ))) в детстве ОБОЖАЛА этот мульт! Всем качать!!! Автору респект!!!
[Профиль]  [ЛС] 

Hkg84

Шкипер

Пост 08-Май-2015 05:46 (спустя 1 месяц 13 дней)

[Q] 

Чудеснейший мультфильм, веселый и чистый.
[Профиль]  [ЛС] 

FINN54

Гроза морей

Пост 20-Июл-2015 14:22 (спустя 2 месяца 12 дней)

[Q] 

Классный мультфильм,многие выссказавания из него ушли в народ
[Профиль]  [ЛС] 
Показать сообщения:    
Ответить на тему

Текущее время: Сегодня 22:31

Часовой пояс: GMT + 4



Вы не можете начинать темы
Вы не можете отвечать на сообщения
Вы не можете редактировать свои сообщения
Вы не можете удалять свои сообщения
Вы не можете голосовать в опросах
Вы не можете прикреплять файлы к сообщениям
Вы не можете скачивать файлы

▼ Вниз