ML
     
  Уважаемый Гость!
Вы можете поддержать проект и зарегистрироваться у наших партнеров - онлайн-стратегия MyLands. При регистрации в игре Вы получите код, который сможете активировать после регистрации на pirat.ca и получить 1000 дублонов.

Ваш код:
47bfc18b89c74e4ae0d974e9b6943639e2bff08e
 
     

Звёздные собаки: Белка и Стрелка (2010) DVDRip (Святослав Ушаков, Инна Евланникова) [2010 г., комедия, приключения, мультфильм, DVDRip] (Original)

Ответить на тему
 
Автор
Сообщение

Пост 09-Ноя-2011 02:38

[Q] 

boltikov

Лоцман

Звёздные собаки: Белка и Стрелка (2010) DVDRip
Год выпуска: 2010
Мировая премьера: 18 марта 2010
Российская премьера: 18 марта 2010
Дата выхода DVD: 12 апреля 2010
Производство: Россия, Centre of National Film
Жанр: комедия, приключения, мультфильм
Продолжительность: 01:24:04
Перевод: Original
Оригинальный аудиопоток: Русский
Режиссер: Святослав Ушаков, Инна Евланникова
В ролях: Анна Большова, Елена Яковлева, Евгений Миронов, Сергей Гармаш, Александр Баширов, Руслан Кулешов, Сергей Юшкевич, Николай Сморчков, Всеволод Кузнецов, Жанна Никонова
Описание: Привычный ход вещей нарушен! Цирковая собака Белка больше не выйдет на манеж покорять сердца зрителей, а дворняжка Стрелка не будет ночевать в подворотнях и искать себе пропитание. Теперь они не просто собаки, а члены отряда космонавтов. И лишь самые достойные, самые выносливые отправятся покорять космическое пространство.
IMDB, КиноПоиск
Источник/Качество: DVDRip
Формат: AVI
Видео кодек: XviD
Аудио кодек: AC3
Видео: 704x384, 1919 kb/s, 25.0 fps
Аудио: AC3, 384 kb/s (6 ch)
General
Complete name : Belka.i.Strelka.2010.O.DVDRip.avi
Format : AVI
Format/Info : Audio Video Interleave
File size : 1.37 GiB
Duration : 1h 24mn
Overal bit rate : 2313 Kbps
Writing application : VirtualDubMod 1.5.10.2 (build 2540/release)
Writing library : VirtualDubMod build 2540/release
Video
Format : MPEG-4 Visual
Format profile : Streaming [email protected]
Format settings, BVOP : Yes
Format settings, QPel : No
Format settings, GMC : No warpoints
Format settings, Matrix : Default
Muxing mode : Packet Bitstream
Codec ID : XVID
Codec ID/Hint : XviD
Duration : 1h 24mn
Bit rate : 1919 Kbps
Width : 704 pixels
Height : 384 pixels
Display aspect ratio : 16/9
Frame rate : 25.000 fps
Resolution : 8 bits
Colorimetry : 4:2:0
Scan type : Progressive
Bits/(Pixel*Frame) : 0.284
Stream size : 1.14 GiB
Writing library : XviD 50
Audio
Format : AC-3
Format/Info : Audio Coding 3
Codec ID : 2000
Duration : 1h 24mn
Bit rate mode : Constant
Bit rate : 384 Kbps
Channel(s) : 6 channels
Channel positions : Front: L C R, Rear: L R, LFE
Sampling rate : 48.0 KHz
Stream size : 233 MiB


Download / Скачать

Хотите скачать бесплатно? Зарегистрируйтесь на сайте (ссылка на регистрацию). Pirat.ca - самый быстрый торрент трекер в рунете!

Как скачивать  ·   Что такое торрент  ·   Рейтинг и ограничения



Последний раз редактировалось: boltikov (2011-11-09 03:33), всего редактировалось 1 раз

Filimonia

Корсар

Пост 09-Ноя-2011 03:47 (спустя 1 час 9 минут)

[Q] 

Спасибо за мультик!
[Профиль]  [ЛС] 

Пост 09-Ноя-2011 03:55 (спустя 7 минут)

Топик был перенесен из форума Мультипликация в форум Отечественные полнометражные мультфильмы

CaptRom
 

Luzhok

Легенда

Пост 09-Ноя-2011 18:41 (спустя 14 часов)

[Q] 

вообще довольно странно:
смотрел первый раз - не понравилось
через неделю стал смотреть повторно с сыном - так вставило...
потом ещё пару раз пересматривал
boltikov,
спасибо
[Профиль]  [ЛС] 

boltikov ®

Лоцман

103

Пост 16-Янв-2012 14:43 (спустя 2 месяца 6 дней)

[Q] 

Luzhok,
Аналогично!
[Профиль]  [ЛС] 

Mahaon3ttt

Лоцман

Пост 16-Янв-2012 22:06 (спустя 7 часов)

[Q] 

Качество хуже некуда!
[Профиль]  [ЛС] 

Michaell43

Корсар

379

Пост 02-Фев-2014 15:15 (спустя 2 года)

[Q] 

Спасибо! Как-то получилось, что пропустил его
[Профиль]  [ЛС] 

tonya10

Юнга

Пост 16-Мар-2014 00:19 (спустя 1 месяц 13 дней)

[Q] 

Смотрела в кинотеатре -класный
[Профиль]  [ЛС] 

Strix

Флибустьер

Пост 15-Фев-2015 10:05 (спустя 10 месяцев 29 дней)

[Q] 

Спасибо Автору респект!!!
[Профиль]  [ЛС] 
Показать сообщения:    
Ответить на тему

Текущее время: Сегодня 07:01

Часовой пояс: GMT + 4



Вы не можете начинать темы
Вы не можете отвечать на сообщения
Вы не можете редактировать свои сообщения
Вы не можете удалять свои сообщения
Вы не можете голосовать в опросах
Вы не можете прикреплять файлы к сообщениям
Вы не можете скачивать файлы

▼ Вниз