ML
     
  Уважаемый Гость!
Вы можете поддержать проект и зарегистрироваться у наших партнеров - онлайн-стратегия MyLands. При регистрации в игре Вы получите код, который сможете активировать после регистрации на pirat.ca и получить 1000 дублонов.

Ваш код:
193c38d0130f05c24de871678ea3ac181461757d
 
     

Снежная королева (Лев Атаманов) [1957 г., мультфильм, фэнтези, драма, семейный, VHSRip]

Ответить на тему
 
Автор
Сообщение

Пост 12-Ноя-2011 20:03

[Q] 

Пират Пиратович

Снежная королева
Год выпуска: 1957
Производство: СССР
Жанр: мультфильм, фэнтези, драма, семейный
Продолжительность: 01:00:34
Режиссер: Лев Атаманов
Описание: Экранизация сказки Андерсена.
В один из морозных зимних вечеров, когда сквозь расписанные причудливым узором окна уютных, теплых домов прокрадывается темнота, а во дворе тревожно завывает вьюга, Снежная королева умчала маленького Кая в свои ледяные владения и превратила его доброе отзывчивое сердце в осколок льдинки. Через множество испытаний пришлось пройти верной Герде, чтобы добраться до чертогов Снежной королевы и спасти мальчика, освободить его из ледового плена, где царят душевный холод и безразличие.
КиноПоиск
Источник/Качество: VHSRip
Формат: AVI
Видео кодек: XviD
Аудио кодек: MP3
Видео: 640x480 01:00:34 25fps XviD 1.4Mbps
Аудио: 48KHz 01:00:34 Stereo 128Kbps mp3
General
Complete name : H:\Загрузки Torrent\Снежная королева.avi
Format : AVI
Format/Info : Audio Video Interleave
File size : 700 MiB
Duration : 1h 0mn
Overall bit rate : 1 615 Kbps
Movie name : Снежная Королева. 1957 г.
Director : agor
Writing application : VirtualDubMod 1.5.10.1 (build 2439/release)
Writing library : VirtualDubMod build 2439/release
Video
ID : 0
Format : MPEG-4 Visual
Format profile : Advanced [email protected]
Format settings, BVOP : 2
Format settings, QPel : No
Format settings, GMC : No warppoints
Format settings, Matrix : Default (MPEG)
Codec ID : XVID
Codec ID/Hint : XviD
Duration : 1h 0mn
Bit rate : 1 477 Kbps
Width : 640 pixels
Height : 480 pixels
Display aspect ratio : 4:3
Frame rate : 25.000 fps
Color space : YUV
Chroma subsampling : 4:2:0
Bit depth : 8 bits
Scan type : Progressive
Compression mode : Lossy
Bits/(Pixel*Frame) : 0.192
Stream size : 640 MiB (91%)
Writing library : XviD 1.1.0 (UTC 2005-11-22)
Audio
ID : 1
Format : MPEG Audio
Format version : Version 1
Format profile : Layer 3
Codec ID : 55
Codec ID/Hint : MP3
Duration : 1h 0mn
Bit rate mode : Constant
Bit rate : 128 Kbps
Channel(s) : 2 channels
Sampling rate : 48.0 KHz
Compression mode : Lossy
Stream size : 55.5 MiB (8%)
Alignment : Aligned on interleaves
Interleave, duration : 40 ms (1.00 video frame)
Interleave, preload duration : 504 ms
Writing library : LAME3.96.1










Download / Скачать

Хотите скачать бесплатно? Зарегистрируйтесь на сайте (ссылка на регистрацию). Pirat.ca - самый быстрый торрент трекер в рунете!

Как скачивать  ·   Что такое торрент  ·   Рейтинг и ограничения

Пост 12-Ноя-2011 20:11 (спустя 7 минут)

Топик был перенесен из форума Мультипликация в форум Отечественные полнометражные мультфильмы

Sirota
 

summer556812

Лоцман

Пост 27-Ноя-2011 12:28 (спустя 14 дней)

[Q] 

Спасибо за этот мультик!
[Профиль]  [ЛС] 

Inspektor

Корсар

4

Пост 25-Янв-2012 00:03 (спустя 1 месяц 27 дней)

[Q] 

Вот почуму сейчас по телеку такие мультики не показывают. Я раньше каждый раз смотрел.

_________________
[Профиль]  [ЛС] 

pro100userspb

Корсар

Пост 20-Сен-2012 20:12 (спустя 7 месяцев 26 дней)

[Q] 


_________________
[Профиль]  [ЛС] 

CHARLI2236

1092

Пост 30-Янв-2013 12:13 (спустя 4 месяца 9 дней)

[Q] 

спс

_________________
[Профиль]  [ЛС] 

agafonkin.62

Морской Волк

Пост 13-Окт-2013 14:44 (спустя 8 месяцев 14 дней)

[Q] 

Спасибо за мультик!
[Профиль]  [ЛС] 

NektoWaso

Флибустьер

Пост 21-Мар-2014 10:15 (спустя 5 месяцев 7 дней)

[Q] 

отличный мультфильм!! :))
[Профиль]  [ЛС] 

Rapid_83

Штурман

Пост 12-Июн-2014 10:24 (спустя 2 месяца 22 дня)

[Q] 

Спасибо. Дочке очень нравится
[Профиль]  [ЛС] 
Показать сообщения:    
Ответить на тему

Текущее время: Сегодня 18:07

Часовой пояс: GMT + 4



Вы не можете начинать темы
Вы не можете отвечать на сообщения
Вы не можете редактировать свои сообщения
Вы не можете удалять свои сообщения
Вы не можете голосовать в опросах
Вы не можете прикреплять файлы к сообщениям
Вы не можете скачивать файлы

▼ Вниз