ML
     
  Уважаемый Гость!
Вы можете поддержать проект и зарегистрироваться у наших партнеров - онлайн-стратегия MyLands. При регистрации в игре Вы получите код, который сможете активировать после регистрации на pirat.ca и получить 1000 дублонов.

Ваш код:
500cb7bd8d2cec9a8aba647a87ce41c4b76f06bd
 
     

Алёша Попович и Тугарин Змей (Константин Бронзит) [2004 г., Комедия, BDRip]

Ответить на тему
 
Автор
Сообщение

Пост 08-Апр-2012 08:23

[Q] 

$ieJOKER

Гроза морей

Алёша Попович и Тугарин Змей - Год выпуска: 2004
Мировая премьера: 19 ноября 2005
Российская премьера: 23 декабря 2004, «Наше Кино»
Дата выхода DVD: 16 апреля 2009, «Союз-Видео»
Дата выхода Blu-Ray: 28 июля 2009, «Монолит»
Производство: Россия, Студия "Мельница"
Жанр: Комедия
Продолжительность: 01:18:46
Оригинальный аудиопоток: русский
Режиссер: Константин Бронзит
В ролях
  • Олег Куликович — Алёша Попович
  • Дмитрий Высоцкий — Юлий
  • Лия Медведева — Любава
  • Наталья Данилова — бабушка Любавы
  • Анатолий Петров — Тихон
  • Сергей Маковецкий — Князь Киевский
  • Иван Краско — Святогор
  • Константин Бронзит — Тугарин
    Описание
    В древнем русском городе Ростове родился в поповской семье сын. Назвали его родители Алешей. А когда он вырос и стал богатырем, то совершил такие подвиги, что стал героем русских былин Алешей Поповичем. Только подвиги его начались с конфуза…
    Подступила к Ростову тугарская вражеская орда во главе с Тугарином Змеем и потребовала, чтобы жители города выплатили дань. Поповский сын предложил план действий. Народ этот план одобрил и собрал гору золота. Алеша же умудрился собственный план «благополучно» провалить, да с каким треском!
    И золото упустил, и полгорода разрушил. После чего поклялся — Тугарина Змея изловить и золото вернуть. Отправился Алеша Попович в путь вместе с дедом Тихоном, который мальчика вырастил и воспитал, а чуть позже компанию им составили говорящий конь Юлий, купленный у цыган, почти 16-летняя красавица Любава, ее бабка и их ослик Моисей…
    IMDB , КиноПоиск
    Источник/Качество: BDRip
    Формат: AVI
    Видео кодек: XviD
    Аудио кодек: AC3
    Видео: 720 x 384 (1.875), 23.976 fps, XviD 2192 kbps, 0.331 bit/pixel
    Аудио: Dolby AC3 48000Hz 6ch 448 Kbps
    Имя файла: Алёша Попович и Тугарин Змей.avi
    Формат файла: .avi (AVI)
    Размер файла: 1.46 GB
    Длительность: 1h 18mn
    Навигация по главам: Нет
    Bitrate (все потоки): 2 649 Kbps
    ...при помощи: VirtualDubMod 1.5.10.2 (build 2542/release)
    Название: Alesha.Popovich.I.Tugarin.Zmey
    Тип потока: Видео
    Длительность: 01:18:46
    Кодек: MPEG-4 Visual
    Кодек/Профиль: Advanced [email protected]
    Кодек/ID: XVID
    Размеры изображения: 720 x 384 (1.875)
    Частота кадров: 23.976 fps
    Размер потока: 1.21 GiB (83%)
    Битрейт: 2 192 Kbps
    Цветовое пространство: YUV
    Тип развёртки: Progressive
    Bits/(Pixel*Frame): 0.331
    Глубина пикселя: 8 bits
    Библиотека кодирования: XviD 1.2.1 (UTC 2008-12-04)
    Тип потока: Звук #1
    Длительность: 01:18:46.427
    Кодек: AC-3
    Кодек/ID: 2000
    Частота дискретизации: 48.0 KHz
    Каналы: 6 channels
    Каналы/позиция: Front: L C R, Side: L R, LFE
    Битрейт: 448 Kbps
    Тип битрейта: Constant
    Размер потока: 252 MiB (17%)
    Download / Скачать

    Хотите скачать бесплатно? Зарегистрируйтесь на сайте (ссылка на регистрацию). Pirat.ca - самый быстрый торрент трекер в рунете!

    Как скачивать  ·   Что такое торрент  ·   Рейтинг и ограничения



  • Последний раз редактировалось: $ieJOKER (2012-04-08 09:54), всего редактировалось 2 раз(а)

    Пост 08-Апр-2012 11:39 (спустя 3 часа)

    Топик был перенесен из форума Мультипликация в форум Отечественные полнометражные мультфильмы

    erchine
     

    CHARLI2236

    1094

    Пост 10-Апр-2012 14:10 (спустя 2 дня 5 часов)

    [Q] 

    спасибо

    _________________
    [Профиль]  [ЛС] 

    SBalykov

    Корсар

    1452

    Пост 17-Июн-2012 06:53 (спустя 2 месяца 6 дней)

    [Q] 

    Хороший мультик!

    _________________
    Never put off till tomorrow what can be done after tomorrow...
    S.Balykov
    [Профиль]  [ЛС] 

    Nightwalker

    Гроза морей

    Пост 07-Окт-2012 02:36 (спустя 3 месяца 19 дней)

    [Q] 

    Спасибо!

    _________________
    Хотя и сладостен азарт, по сразу двум идти дорогам, нельзя одной колодой карт, играть и с Дьяволом и Богом.
    [Профиль]  [ЛС] 

    Valek3275

    Морской Волк

    Пост 22-Апр-2013 13:04 (спустя 6 месяцев 15 дней)

    [Q] 

    [Профиль]  [ЛС] 

    alex denver71

    Флибустьер

    Пост 09-Янв-2015 12:53 (спустя 1 год 8 месяцев)

    [Q] 

    Автору респект!!! Мульт класс!!!
    [Профиль]  [ЛС] 
    Показать сообщения:    
    Ответить на тему

    Текущее время: Сегодня 01:44

    Часовой пояс: GMT + 4



    Вы не можете начинать темы
    Вы не можете отвечать на сообщения
    Вы не можете редактировать свои сообщения
    Вы не можете удалять свои сообщения
    Вы не можете голосовать в опросах
    Вы не можете прикреплять файлы к сообщениям
    Вы не можете скачивать файлы

    ▼ Вниз