ML
     
  Уважаемый Гость!
Вы можете поддержать проект и зарегистрироваться у наших партнеров - онлайн-стратегия MyLands. При регистрации в игре Вы получите код, который сможете активировать после регистрации на pirat.ca и получить 1000 дублонов.

Ваш код:
8dcb839cf1b47e56d6dc42d17f26b3e4822e9aee
 
     

День рождения Алисы (Сергей Серегин) [2009 г., Мультфильм, DVDRip]

Ответить на тему
 
Автор
Сообщение

Пост 04-Дек-2011 16:51

[Q] 

Андря

День рождения Алисы
Год выпуска: 2009
Жанр: Мультфильм
Продолжительность: 01:30:00
Режиссер: Сергей Серегин
В ролях: Ярослава Николаева, Алексей Колган, Роман Стабуров, Евгений Стычкин, Наталья Гусева, Николай Лазарев
Описание: Фильм «День рождения Алисы» рассказывает о необыкновенных приключениях девочки Алисы и ее друга — маленького археолога Рррр в прошлом далекой чужой планеты Колеида. Алиса и Рррр проявляют мужество, смекалку и выдержку, учатся не падать духом в самых безнадежных ситуациях, и узнают что такое настоящая дружба. А в результате им удалось изменить ход истории и вернуть к жизни целую планету!
Качество: DVDRip
Формат: AVI
Видео кодек: XviD
Аудио кодек: AC3
Видео: 704x384 (1.83:1), 25 fps, XviD MPEG-4 ~1781 kbps avg, 0.26 bit/pixel
Аудио: 48 kHz, AC3 Dolby Digital, 3/2 (L,C,R,l,r) + LFE ch, ~384.00 kbps avg
Общее
Полное имя : Den.rozhdenija.Alisy.2009.O.DVDRip.avi
Формат : AVI
Формат/Информация : Audio Video Interleave
Размер файла : 1,37 Гбайт
Продолжительность : 1 ч. 30 м.
Общий поток : 2175 Кбит/сек
Программа кодирования : VirtualDubMod 1.5.10.2 (build 2540/release)
Библиотека кодирования : VirtualDubMod build 2540/release
Видео
Идентификатор : 0
Формат : MPEG-4 Visual
Профиль формата : Advanced [email protected]
Параметр BVOP формата : 2
Параметр QPel формата : Нет
Параметр GMC формата : Без точки перехода
Параметр матрицы формата : Default (MPEG)
Режим смешивания : Сжатый битовый поток
Идентификатор кодека : XVID
Идентификатор кодека/Подсказка : XviD
Продолжительность : 1 ч. 30 м.
Битрейт : 1782 Кбит/сек
Ширина : 704 пикселя
Высота : 384 пикселя
Соотношение сторон : 16:9
Частота кадров : 25,000 кадров/сек
Цветовое пространство : YUV
Субдискретизация насыщенности : 4:2:0
Битовая глубина : 8 бит
Тип развёртки : Прогрессивная
Метод сжатия : С потерями
Бит/(Пиксели*Кадры) : 0.264
Размер потока : 1,12 Гбайт (82%)
Библиотека кодирования : XviD 1.2.1 (UTC 2008-12-04)
Аудио
Идентификатор : 1
Формат : AC-3
Формат/Информация : Audio Coding 3
Расширение режима : CM (complete main)
Идентификатор кодека : 2000
Продолжительность : 1 ч. 29 м.
Вид битрейта : Постоянный
Битрейт : 384 Кбит/сек
Каналы : 6 каналов
Расположение каналов : Front: L C R, Side: L R, LFE
Частота : 48,0 КГц
Битовая глубина : 16 бит
Метод сжатия : С потерями
Размер потока : 247 Мбайт (18%)
Выравнивание : Разделение по промежуткам
Продолжительность промежутка : 40 мс. (1,00 видеокадр)
Время предзагрузки промежутка : 500 мс.
Download / Скачать

Хотите скачать бесплатно? Зарегистрируйтесь на сайте (ссылка на регистрацию). Pirat.ca - самый быстрый торрент трекер в рунете!

Как скачивать  ·   Что такое торрент  ·   Рейтинг и ограничения

Пост 04-Дек-2011 17:04 (спустя 13 минут)

Топик был перенесен из форума Зарубежные полнометражные мультфильмы в форум Отечественные полнометражные мультфильмы

Sirota
 

Ilshat031164

Лоцман

Пост 16-Дек-2011 11:11 (спустя 11 дней)

[Q] 

bn Сидов: 2 [ 0 KB/s ] печально скачивать такими темпами

_________________
[Профиль]  [ЛС] 

veridor

Лоцман

Пост 03-Янв-2012 15:19 (спустя 18 дней)

[Q] 

медленно((
[Профиль]  [ЛС] 

Алекс2307

Лоцман

Пост 03-Янв-2012 21:30 (спустя 6 часов)

[Q] 

Кто смотрел? Стоит? Что-то скриншоты не вдохновляют
[Профиль]  [ЛС] 

Александр 198001

Шкипер

Пост 23-Янв-2012 22:50 (спустя 20 дней)

[Q] 

Спасибо!!!
[Профиль]  [ЛС] 

Alexe10

Гроза морей

36

Пост 23-Окт-2014 07:26 (спустя 2 года 8 месяцев)

[Q] 

Позорненькая поделка про Алису!!!
[Профиль]  [ЛС] 
Показать сообщения:    
Ответить на тему

Текущее время: Сегодня 04:14

Часовой пояс: GMT + 4



Вы не можете начинать темы
Вы не можете отвечать на сообщения
Вы не можете редактировать свои сообщения
Вы не можете удалять свои сообщения
Вы не можете голосовать в опросах
Вы не можете прикреплять файлы к сообщениям
Вы не можете скачивать файлы

▼ Вниз