ML
     
  Уважаемый Гость!
Вы можете поддержать проект и зарегистрироваться у наших партнеров - онлайн-стратегия MyLands. При регистрации в игре Вы получите код, который сможете активировать после регистрации на pirat.ca и получить 1000 дублонов.

Ваш код:
4fbd9898b6f10799a3e8edf60f31febd2bc15453
 
     

Князь Владимир (Юрий Кулаков) [2004 г., мультфильм, драма, история, DVDRip]

Ответить на тему
 
Автор
Сообщение

Пост 12-Апр-2012 22:39

[Q] 

erchine

Князь Владимир
Год выпуска: 2004
Мировая премьера: 15 мая 2004
Российская премьера: 22 февраля 2006
Производство: Россия
Жанр: мультфильм, драма, история
Продолжительность: 01:17:06
Оригинальный аудиопоток: русский
Режиссер: Юрий Кулаков
Описание
Невиданная и загадочная древняя Русь, утопающая в красках первозданной природы и старинных праздников. Деревянные города и необъятные просторы, жестокие сражения и щедрые пиры, шумные ярмарки и грандиозные охоты. На фоне всех этих исторических событий и удивительных приключений крепнет настоящая дружба и рождается первая любовь…

Источник/Качество: DVDRip
Формат: AVI
Видео кодек: XviD
Аудио кодек: AC3
Видео: Xvid 720x416 25.00fps 2080 Kbps
Аудио: Dolby AC3 48000Hz 6ch 448kbps
Кинонаграды «MTV-Россия», 2007 год
Номинация: Лучший анимационный фильм
General
Complete name : F:\Knjaz.Vladimir.2006.XviD.DVDRip.avi
Format : AVI
Format/Info : Audio Video Interleave
File size : 1.37 GiB
Duration : 1h 17mn
Overall bit rate : 2 535 Kbps
Writing application : VirtualDubMod 1.5.4.1 (build 2178/release)
Writing library : VirtualDubMod build 2178/release
Video
ID : 0
Format : MPEG-4 Visual
Format profile : Advanced [email protected]
Format settings, BVOP : Yes
Format settings, QPel : No
Format settings, GMC : No warppoints
Format settings, Matrix : Custom
Codec ID : XVID
Codec ID/Hint : XviD
Duration : 1h 17mn
Bit rate : 2 080 Kbps
Width : 720 pixels
Height : 416 pixels
Display aspect ratio : 16:9
Frame rate : 25.000 fps
Resolution : 8 bits
Colorimetry : 4:2:0
Scan type : Progressive
Bits/(Pixel*Frame) : 0.278
Stream size : 1.12 GiB (82%)
Writing library : XviD 1.2.0.dev47 (UTC 2006-11-01)
Audio
ID : 1
Format : AC-3
Format/Info : Audio Coding 3
Format_Settings_ModeExtension : CM (complete main)
Codec ID : 2000
Duration : 1h 17mn
Bit rate mode : Constant
Bit rate : 448 Kbps
Channel(s) : 6 channels
Channel positions : Front: L C R, Side: L R, LFE
Sampling rate : 48.0 KHz
Stream size : 247 MiB (18%)
Alignment : Aligned on interleaves
Interleave, duration : 96 ms (2.40 video frames)
Interleave, preload duration : 96 ms
Language : Russian
Download / Скачать

Хотите скачать бесплатно? Зарегистрируйтесь на сайте (ссылка на регистрацию). Pirat.ca - самый быстрый торрент трекер в рунете!

Как скачивать  ·   Что такое торрент  ·   Рейтинг и ограничения

Пост 12-Апр-2012 23:06 (спустя 26 минут)

Топик был перенесен из форума Мультипликация в форум Отечественные полнометражные мультфильмы

CaptRom
 

CHARLI2236

1092

Пост 06-Май-2012 09:11 (спустя 23 дня)

[Q] 

спасибо

_________________
[Профиль]  [ЛС] 

the_lame

Корсар

Пост 03-Июн-2012 21:00 (спустя 28 дней)

[Q] 

Хороший мульт
[Профиль]  [ЛС] 

Bile

4188

Пост 03-Фев-2013 01:58 (спустя 7 месяцев 29 дней)

[Q] 

Очень хороший мультик, серьезный.
[Профиль]  [ЛС] 

alex denver71

Флибустьер

Пост 18-Авг-2014 07:55 (спустя 1 год 6 месяцев)

[Q] 

Автору респект!!! Отличный мультфильм!!! cy
[Профиль]  [ЛС] 

Antarres

Легенда

Пост 11-Фев-2015 11:22 (спустя 5 месяцев 24 дня)

[Q] 

Thanks !

_________________
[Профиль]  [ЛС] 

Amadon

Шкипер

Пост 05-Мар-2015 13:24 (спустя 22 дня)

[Q] 

спасибо Автору респект!!!
[Профиль]  [ЛС] 
Показать сообщения:    
Ответить на тему

Текущее время: Сегодня 19:58

Часовой пояс: GMT + 4



Вы не можете начинать темы
Вы не можете отвечать на сообщения
Вы не можете редактировать свои сообщения
Вы не можете удалять свои сообщения
Вы не можете голосовать в опросах
Вы не можете прикреплять файлы к сообщениям
Вы не можете скачивать файлы

▼ Вниз