ML
     
  Уважаемый Гость!
Вы можете поддержать проект и зарегистрироваться у наших партнеров - онлайн-стратегия MyLands. При регистрации в игре Вы получите код, который сможете активировать после регистрации на pirat.ca и получить 1000 дублонов.

Ваш код:
a6d1ef7ff63e237add5a4c8b21d8aa937c5e9b4b
 
     

Снегурочка (Александра Снежко-Блоцкая) [1952 г.] (Мультипликационный фильм, рисованный) [DVDRip]

Ответить на тему
 
Автор
Сообщение

Пост 04-Дек-2011 19:26

[Q] 

Андря

Снегурочка Год выпуска: 1952
Жанр: Мультипликационный фильм, рисованный
Продолжительность: 1:05:00
Производство: Киностудия "Союзмультфильм"
Описание фильма: Сказка о весёлых берендеях, о пригожем певце Леле, о красивой, но холодной сердцем Снегурочке - дочери Мороза, о безответно любящем её славном Мизгире и о Весне-Красне, поделившейся с дочкой Снегурочкой волшебным даром любви.
Мультипликационный фильм по мотивам "весенней сказки" А.Н. Островского "Снегурочка" на музыку Н.А. Римского-Корсакова в обработке Л. Шварца. Оркестр Министерства кинематографии СССР. Дирижёр В.Небольсин. Хореография В. Бурмейстрова. Режиссер: Иван Иванов-Вано
Актеры: Вениамин Шевцов, Л. Ктиторов,В. Борисенко, Ирина Масленникова Премьера (мир): 14 августа 1953
Релиз на DVD: 30 октября 2008, «Союз-Видео»
Качество: DVDRip
Видеокодек: XviD
Формат: AVI
Аудио кодек: AC3
Видео: 720x544 (1.32:1), 25 fps, XviD MPEG-4 ~2777 kbps avg, 0.28 bit/pixel
Аудио: 48 kHz, AC3 Dolby Digital, 2/0 (L,R) ch, ~192.00 kbps avg
Общее
Полное имя : Снегурочка.avi
Формат : AVI
Формат/Информация : Audio Video Interleave
Размер файла : 1,35 Гбайт
Продолжительность : 1 ч. 5 м.
Общий поток : 2979 Кбит/сек
Программа кодирования : VirtualDubMod 1.5.10.2 (build 2542/release)
Библиотека кодирования : VirtualDubMod build 2542/release
Видео
Идентификатор : 0
Формат : MPEG-4 Visual
Профиль формата : Advanced [email protected]
Параметр BVOP формата : 2
Параметр QPel формата : Нет
Параметр GMC формата : Без точки перехода
Параметр матрицы формата : Default (H.263)
Режим смешивания : Сжатый битовый поток
Идентификатор кодека : XVID
Идентификатор кодека/Подсказка : XviD
Продолжительность : 1 ч. 5 м.
Битрейт : 2778 Кбит/сек
Ширина : 720 пикселей
Высота : 544 пикселя
Соотношение сторон : 4:3
Частота кадров : 25,000 кадров/сек
Цветовое пространство : YUV
Субдискретизация насыщенности : 4:2:0
Битовая глубина : 8 бит
Тип развёртки : Прогрессивная
Метод сжатия : С потерями
Бит/(Пиксели*Кадры) : 0.284
Размер потока : 1,26 Гбайт (93%)
Библиотека кодирования : XviD 1.1.2 (UTC 2006-11-01)
Аудио
Идентификатор : 1
Формат : AC-3
Формат/Информация : Audio Coding 3
Расширение режима : CM (complete main)
Идентификатор кодека : 2000
Продолжительность : 1 ч. 5 м.
Вид битрейта : Постоянный
Битрейт : 192 Кбит/сек
Каналы : 2 канала
Расположение каналов : Front: L R
Частота : 48,0 КГц
Битовая глубина : 16 бит
Метод сжатия : С потерями
Размер потока : 89,3 Мбайт (6%)
Выравнивание : Соединение по промежуткам
Продолжительность промежутка : 40 мс. (1,00 видеокадр)
Время предзагрузки промежутка : 512 мс.






Download / Скачать

Хотите скачать бесплатно? Зарегистрируйтесь на сайте (ссылка на регистрацию). Pirat.ca - самый быстрый торрент трекер в рунете!

Как скачивать  ·   Что такое торрент  ·   Рейтинг и ограничения



Последний раз редактировалось: Андря (2012-01-21 13:50), всего редактировалось 2 раз(а)

Пост 04-Дек-2011 23:22 (спустя 3 часа)

Топик был перенесен из форума Мультипликация в форум Отечественные полнометражные мультфильмы

Sirota
 

deal9

Штурман

Пост 06-Янв-2012 17:04 (спустя 1 месяц 1 день)

[Q] 

Скрины не отображаются(. И ещё вопрос: Это не восстановленный мультик, авторский? А то после переделки и переозвучивания их смотреть невозможно.
[Профиль]  [ЛС] 

Андря ®

8405

Пост 21-Янв-2012 13:51 (спустя 14 дней)

[Q] 

Скрины не отображаются(. И ещё вопрос: Это не восстановленный мультик, авторский? А то после переделки и переозвучивания их смотреть невозможно.
Скрины переделал.Судя по шумам и затёртостям на кдрах,то это авторская версия,хотя я могу и ошибаться,так как не видел другой версии,кроме этой.

_________________
Като Тешекика
[Профиль]  [ЛС] 

buba-79

Флибустьер

Пост 03-Апр-2012 20:47 (спустя 2 месяца 13 дней)

[Q] 

[Профиль]  [ЛС] 

anatolijrudnev

Корсар

Пост 22-Ноя-2012 20:13 (спустя 7 месяцев 18 дней)

[Q] 

[Профиль]  [ЛС] 

Shkodnik

Морской Волк

Пост 11-Окт-2013 19:45 (спустя 10 месяцев 18 дней)

[Q] 

Скачиваю, надеюсь звук оригинальный, а не мастеринг.....
Но всё равно спасибо) Спасибо!!!
[Профиль]  [ЛС] 
Показать сообщения:    
Ответить на тему

Текущее время: Сегодня 13:34

Часовой пояс: GMT + 4



Вы не можете начинать темы
Вы не можете отвечать на сообщения
Вы не можете редактировать свои сообщения
Вы не можете удалять свои сообщения
Вы не можете голосовать в опросах
Вы не можете прикреплять файлы к сообщениям
Вы не можете скачивать файлы

▼ Вниз