ML
     
  Уважаемый Гость!
Вы можете поддержать проект и зарегистрироваться у наших партнеров - онлайн-стратегия MyLands. При регистрации в игре Вы получите код, который сможете активировать после регистрации на pirat.ca и получить 1000 дублонов.

Ваш код:
2932e5898d0a27592397f70b82a5834d1e70ea19
 
     

EURO 2012 / Полуфинал / Италия - Германия / Первый канал [2012 г., Футбол, SATRip]

Ответить на тему
 
Автор
Сообщение

Пост 29-Июн-2012 13:18

[Q] 

Mitay

EURO 2012 / Полуфинал / Италия - Германия / Первый канал Год выпуска: 2012
Вид спорта: Футбол
Участники: Сборная Германии и Италии
Продолжительность: 01:44:00
Комментарий: Профессиональный (одноголосый, закадровый)
Язык комментариев: русский
Комментатор: Виктор Гусев
Описание: Чемпионат Европы по футболу 2012. Второй полуфинал от 28.06.2012
Источник/Качество: SATRip
Формат: AVI
Видео кодек: H.264
Аудио кодек: MP3
Видео: 704x576 (1.22:1), 29.970 fps, Intel ITU H.264 ~1681 kbps avg, 0.14 bit/pixel
Аудио: 44.100 kHz, MPEG Layer 3, 2 ch, ~128.00 kbps avg
Формат : AVI
Формат/Информация : Audio Video Interleave
Профиль формата : OpenDML
Размер файла : 1,32 Гбайт
Продолжительность : 1 ч. 43 м.
Общий поток : 1824 Кбит/сек
Программа кодирования : Lavf52.39.0
Видео
Идентификатор : 0
Формат : AVC
Формат/Информация : Advanced Video Codec
Профиль формата : [email protected]
Параметр CABAC формата : Да
Параметр ReFrames формата : 3 кадра
Идентификатор кодека : H264
Продолжительность : 1 ч. 43 м.
Битрейт : 1681 Кбит/сек
Номинальный битрейт : 2000 Кбит/сек
Ширина : 704 пикселя
Высота : 576 пикселей
Соотношение сторон : 16:9
Частота кадров : 29,970 кадров/сек
Стандарт вещания : PAL
Цветовое пространство : YUV
Субдискретизация насыщенности : 4:2:0
Битовая глубина : 8 бит
Тип развёртки : Прогрессивная
Бит/(Пиксели*Кадры) : 0.138
Размер потока : 1,22 Гбайт (92%)
Библиотека кодирования : x264 core 77
Настройки программы : cabac=1 / ref=3 / deblock=1:0:0 / analyse=0x3:0x113 / me=hex / subme=7 / psy=1 / psy_rd=1.0:0.0 / mixed_ref=1 / me_range=16 / chroma_me=1 / trellis=1 / 8x8dct=1 / cqm=0 / deadzone=21,11 / chroma_qp_offset=-2 / threads=2 / nr=0 / decimate=1 / mbaff=0 / constrained_intra=0 / bframes=3 / b_pyramid=0 / b_adapt=1 / b_bias=0 / direct=1 / wpredb=32 / keyint=250 / keyint_min=25 / scenecut=40 / rc_lookahead=40 / rc=abr / mbtree=1 / bitrate=2000 / ratetol=1.0 / qcomp=0.60 / qpmin=10 / qpmax=51 / qpstep=4 / ip_ratio=1.41 / aq=1:1.00
Аудио
Идентификатор : 1
Формат : MPEG Audio
Версия формата : Version 1
Профиль формата : Layer 3
Режим : Joint stereo
Расширение режима : MS Stereo
Идентификатор кодека : 55
Идентификатор кодека/Подсказка : MP3
Продолжительность : 1 ч. 43 м.
Вид битрейта : Постоянный
Битрейт : 128 Кбит/сек
Каналы : 2 канала
Частота : 44,1 КГц
Метод сжатия : С потерями
Размер потока : 95,2 Мбайт (7%)
Выравнивание : Соединение по промежуткам
Продолжительность промежутка : 26 мс. (0,78 видеокадр)
Download / Скачать

Хотите скачать бесплатно? Зарегистрируйтесь на сайте (ссылка на регистрацию). Pirat.ca - самый быстрый торрент трекер в рунете!

Как скачивать  ·   Что такое торрент  ·   Рейтинг и ограничения

Pronto

Корсар

Пост 29-Июн-2012 14:38 (спустя 1 час 19 минут)

[Q] 

жалко немцев

_________________
[Профиль]  [ЛС] 

Дядя Витя

53908

Пост 29-Июн-2012 17:23 (спустя 2 часа 44 минуты)

[Q] 

мдя

_________________
?
[Профиль]  [ЛС] 

Mitay ®

388

Пост 30-Июн-2012 02:20 (спустя 8 часов)

[Q] 

Совсем даже не жалел их, думали все об их победе, а Испания снова их обошла и это все статистика :о)

_________________
[Профиль]  [ЛС] 
Показать сообщения:    
Ответить на тему

Текущее время: Сегодня 08:04

Часовой пояс: GMT + 4



Вы не можете начинать темы
Вы не можете отвечать на сообщения
Вы не можете редактировать свои сообщения
Вы не можете удалять свои сообщения
Вы не можете голосовать в опросах
Вы не можете прикреплять файлы к сообщениям
Вы не можете скачивать файлы

▼ Вниз